<?xml version="1.0" standalone="no"?>
<!DOCTYPE svg PUBLIC "-//W3C//DTD SVG 1.1//EN" "http://www.w3.org/Graphics/SVG/1.1/DTD/svg11.dtd" >
<svg xmlns="http://www.w3.org/2000/svg" xmlns:xlink="http://www.w3.org/1999/xlink" version="1.1">
<metadata>
Created by FontForge 20141024 at Wed Mar 25 15:34:07 2015
 By System Administrator
Copyright 2014 Google Inc. All Rights Reserved.
</metadata>
<defs>
<font id="MyanmarSagar" horiz-adv-x="600" >
  <font-face 
    font-family="Myanmar Sagar"
    font-weight="400"
    font-stretch="normal"
    units-per-em="1000"
    panose-1="2 0 5 0 0 0 0 0 0 0"
    ascent="750"
    descent="-250"
    bbox="-651 -370 2200 890"
    underline-thickness="150"
    underline-position="-142"
    unicode-range="U+0020-AA7B"
  />
<missing-glyph horiz-adv-x="550" 
d="M50 0v520h450v-520h-450zM77 18h396v484h-396v-484zM173 416q17 10 32 16q28 11 61 11q50 0 80.5 -17.5t30.5 -46.5q0 -17 -12.5 -35t-47.5 -47q-34 -29 -54 -48t-20 -36q0 -14 13 -48h-17q-19 35 -19 53q0 28 44.5 79.5t44.5 78.5q0 21 -18 33t-50 12q-21 0 -38 -7
q-14 -5 -30 -14v16zM208 121l31 21q6 4 11 4t12 -4l30 -22q5 -4 5 -7q0 -4 -5 -8l-31 -23q-7 -5 -11 -5q-6 0 -11 4l-33 26q-4 3 -4 6q0 4 6 8z" />
    <glyph glyph-name="u103E_102F" unicode="&#x103e;&#x102f;" horiz-adv-x="0" 
d="M-410 -20h80v-350h-176v80h96v270zM-190 -290h96v-80h-176v350h80v-270z" />
    <glyph glyph-name="u1085_1036" unicode="&#x1085;&#x1036;" horiz-adv-x="0" 
d="M-470 715q-44 25 -44 75q0 100 145 100q47 0 81 -7l-9 -69q-28 16 -72 16q-65 0 -65 -40q0 -50 95 -50v-50q-95 0 -95 -50q0 -40 65 -40q44 0 72 16l9 -69q-34 -7 -81 -7q-145 0 -145 100q0 50 44 75zM-196 825q110 0 110 -110t-110 -110t-110 110t110 110zM-156 715
q0 40 -40 40t-40 -40t40 -40t40 40z" />
    <glyph glyph-name="u1085_102D" unicode="&#x1085;&#x102d;" horiz-adv-x="0" 
d="M-513 715q-44 25 -44 75q0 100 145 100q47 0 81 -7l-9 -69q-28 16 -72 16q-65 0 -65 -40q0 -50 95 -50v-50q-95 0 -95 -50q0 -40 65 -40q44 0 72 16l9 -69q-34 -7 -81 -7q-145 0 -145 100q0 50 44 75zM-193 810q-74 0 -74 -95t74 -95t74 95t-74 95zM-193 890
q150 0 150 -175t-150 -175t-150 175t150 175z" />
    <glyph glyph-name="u1085_102E" unicode="&#x1085;&#x102e;" horiz-adv-x="0" 
d="M-513 715q-44 25 -44 75q0 100 145 100q47 0 81 -7l-9 -69q-28 16 -72 16q-65 0 -65 -40q0 -50 95 -50v-50q-95 0 -95 -50q0 -40 65 -40q44 0 72 16l9 -69q-34 -7 -81 -7q-145 0 -145 100q0 50 44 75zM-119 712v3q0 95 -74 95t-74 -95v-3q36 13 74 13t74 -13zM-259 658
q15 -48 66 -48t66 48q-31 17 -66 17t-66 -17zM-193 890q150 0 150 -175t-150 -175t-150 175t150 175z" />
    <glyph glyph-name="u102D_1036" unicode="&#x102d;&#x1036;" horiz-adv-x="0" 
d="M-408 810q-74 0 -74 -95t74 -95t74 95t-74 95zM-408 890q150 0 150 -175t-150 -175t-150 175t150 175zM-141 825q100 0 100 -110t-100 -110t-100 110t100 110zM-104 715q0 40 -37 40t-37 -40t37 -40t37 40z" />
    <glyph glyph-name="u100D_1039_100D" unicode="&#x100d;&#x1039;&#x100d;" 
d="M117 -296q55 -16 98 -16q107 0 156 35h19v-52h50v-41h-100v35q-44 -19 -125 -19q-137 1 -175 39v96l80 18q10 -33 93 -33q95 0 95 46t-95 46q-83 0 -93 -32l-78 17q23 77 171 77q175 0 175 -108t-175 -108q-41 0 -93 16v-16h-3zM560 -290h80v-80h-160v328
q-89 -21 -180 -21q-170 0 -260 69v219l77 28q24 -96 183 -96q180 0 180 140q0 143 -180 143q-159 0 -183 -98l-77 27q38 151 260 151q260 0 260 -223q0 -220 -260 -220q-98 0 -180 36v-75q86 -35 180 -35q146 0 233 79l27 -16v-356z" />
    <glyph glyph-name="u100E_1039_100D" unicode="&#x100e;&#x1039;&#x100d;" horiz-adv-x="700" 
d="M348 174q-148 0 -171 59l98 13q10 -25 73 -25q75 0 75 35t-75 35q-63 0 -73 -25l-98 13q23 59 171 59q175 0 175 -82t-175 -82zM525 136q55 39 55 124q0 159 -128 183l32 77q176 -38 176 -260q0 -172 -155 -240v-310h100v-80h-180v374q-35 -4 -75 -4q-310 0 -310 260
q0 58 34 98q18 20 74 51v31h-108v80h108q100 0 100 -93q0 -74 -64 -96t-64 -71q0 -180 230 -180q67 0 113 17l12 47q-44 -14 -125 -14q-137 1 -175 29l20 29q52 -26 155 -27q107 0 156 27h19v-52z" />
    <glyph glyph-name="u100F_100D" unicode="&#x100f;&#x1039;&#x100d;" horiz-adv-x="1020" 
d="M574 81q-44 65 -44 179q0 116 45 180q-18 30 -65 30t-65 -30q45 -64 45 -180q0 -114 -44 -179q3 -31 64 -31t64 31zM883 31v-14q0 -113 -84 -113v-4q-54 0 -54 -53h-2v-73q0 -142 -88 -142l-222 -2l-28 82q73 10 73 93q0 95 -95 95t-95 -95q0 -83 73 -93l-28 -82
q-125 27 -125 175q0 175 175 175t175 -175q0 -41 -10 -93h57q58 0 58 62v73h2q0 133 134 133v4q30 0 33 25l2 1q-35 -10 -79 -10v80q145 0 145 180t-145 180t-145 -180q0 -106 50 -149q-7 -111 -150 -111t-150 111q50 43 50 149q0 180 -145 180t-145 -180t145 -180v-80
q-225 0 -225 260t225 260q89 0 143 -41q30 41 102 41t102 -41q54 41 143 41q225 0 225 -260q0 -171 -97 -229z" />
    <glyph glyph-name="u103E_1030" unicode="&#x103e;&#x1030;" horiz-adv-x="0" 
d="M-340 -20h80v-350h-80v350zM-210 -20h80v-270h106v-80h-186v350zM-390 -370h-186v80h106v270h80v-350z" />
    <glyph glyph-name="u102B_103A" unicode="&#x102b;&#x103a;" horiz-adv-x="160" 
d="M40 667q0 103 -90 103t-90 -103h-80q0 183 170 183q88 0 130 -49q42 49 130 49q170 0 170 -183h-80q0 103 -90 103t-90 -103v-667h-80v667z" />
    <glyph glyph-name="u103D_1037" unicode="&#x103d;&#x1037;" horiz-adv-x="10" 
d="M-71 -30q100 0 100 -110t-100 -110t-100 110t100 110zM-34 -140q0 40 -37 40t-37 -40t37 -40t37 40zM-350 -100q-95 0 -95 -95t95 -95t95 95t-95 95zM-350 -20q175 0 175 -175t-175 -175t-175 175t175 175z" />
    <glyph glyph-name=".notdef" horiz-adv-x="550" 
d="M50 0v520h450v-520h-450zM77 18h396v484h-396v-484zM173 416q17 10 32 16q28 11 61 11q50 0 80.5 -17.5t30.5 -46.5q0 -17 -12.5 -35t-47.5 -47q-34 -29 -54 -48t-20 -36q0 -14 13 -48h-17q-19 35 -19 53q0 28 44.5 79.5t44.5 78.5q0 21 -18 33t-50 12q-21 0 -38 -7
q-14 -5 -30 -14v16zM208 121l31 21q6 4 11 4t12 -4l30 -22q5 -4 5 -7q0 -4 -5 -8l-31 -23q-7 -5 -11 -5q-6 0 -11 4l-33 26q-4 3 -4 6q0 4 6 8z" />
    <glyph glyph-name=".null" horiz-adv-x="0" 
 />
    <glyph glyph-name="nonmarkingreturn" horiz-adv-x="508" 
 />
    <glyph glyph-name="space" unicode=" " horiz-adv-x="250" 
 />
    <glyph glyph-name="space" unicode="&#xa0;" horiz-adv-x="250" 
 />
    <glyph glyph-name="u1000" unicode="&#x1000;" horiz-adv-x="1040" 
d="M520 424q62 96 220 96q260 0 260 -260t-260 -260q-97 0 -158 36l49 69q42 -25 109 -25q180 0 180 180t-180 180t-180 -180q0 -223 -180 -260l-22 79q122 26 122 181q0 180 -180 180t-180 -180q0 -155 122 -181l-22 -79q-180 37 -180 260q0 260 260 260q158 0 220 -96z
" />
    <glyph glyph-name="u1001" unicode="&#x1001;" 
d="M414 108q66 43 66 152q0 180 -180 180q-155 0 -181 -122l-79 22q37 180 260 180q260 0 260 -260t-260 -260q-223 0 -260 180v10q0 25 19.5 37.5t64.5 12.5q167 0 290 -132zM366 87q-92 99 -244 103q31 -110 178 -110q37 0 66 7z" />
    <glyph glyph-name="u1002" unicode="&#x1002;" 
d="M300 520q260 0 260 -260q0 -223 -180 -260l-22 79q122 26 122 181q0 180 -180 180t-180 -180q0 -155 122 -181l-22 -79q-180 37 -180 260q0 260 260 260z" />
    <glyph glyph-name="u1003" unicode="&#x1003;" horiz-adv-x="1040" 
d="M40 260q0 38 26 78t83 63q19 8 19 24q0 15 -20 15h-108v80h108q100 0 100 -93q0 -64 -64 -91t-64 -76q0 -180 180 -180t180 180q0 155 -122 181l22 79q180 -37 180 -260q0 -180 180 -180t180 180t-180 180q-67 0 -109 -25l-49 69q61 36 158 36q260 0 260 -260t-260 -260
q-158 0 -220 96q-62 -96 -220 -96q-260 0 -260 260z" />
    <glyph glyph-name="u1004" unicode="&#x1004;" 
d="M300 520q223 0 260 -180l-79 -22q-26 122 -181 122q-180 0 -180 -180t180 -180q155 0 181 122l79 -22q-37 -180 -260 -180q-260 0 -260 260t260 260z" />
    <glyph glyph-name="u1005" unicode="&#x1005;" 
d="M246 85q25 -5 54 -5q180 0 180 180t-180 180q-29 0 -54 -5q54 -70 54 -175t-54 -175zM195 417q-75 -41 -75 -157t75 -157q55 60 55 157t-55 157zM300 520q260 0 260 -260t-260 -260t-260 260t260 260z" />
    <glyph glyph-name="u1006" unicode="&#x1006;" horiz-adv-x="1040" 
d="M366 87q-92 99 -244 103q31 -110 178 -110q37 0 66 7zM740 440q-180 0 -180 -180t180 -180t180 180t-180 180zM520 96q-62 -96 -220 -96q-223 0 -260 180v10q0 25 19.5 37.5t64.5 12.5q167 0 290 -132q66 43 66 152q0 180 -180 180q-155 0 -181 -122l-79 22
q37 180 260 180q158 0 220 -96q62 96 220 96q260 0 260 -260t-260 -260q-158 0 -220 96z" />
    <glyph glyph-name="u1007" unicode="&#x1007;" 
d="M480 324q-18 73 -85 100q-31 -32 -31 -61q0 -60 60 -60q27 0 56 21zM538 334q15 -60 103 -72l-6 -50q-94 12 -130 68q-27 -27 -81 -27q-110 0 -110 110q0 33 28 74q-20 3 -42 3q-180 0 -180 -180t180 -180q155 0 181 122l79 -22q-37 -180 -260 -180q-260 0 -260 260
t260 260q223 0 260 -180z" />
    <glyph glyph-name="u1008" unicode="&#x1008;" horiz-adv-x="760" 
d="M246 85q25 -5 54 -5q180 0 180 180t-180 180q-29 0 -54 -5q54 -70 54 -175t-54 -175zM195 417q-75 -41 -75 -157t75 -157q55 60 55 157t-55 157zM375 6v-198q0 -98 89 -98h87q89 0 89 98v712h80v-712q0 -178 -169 -178h-87q-169 0 -169 178v192q-255 3 -255 260
q0 260 260 260t260 -260q0 -219 -185 -254z" />
    <glyph glyph-name="u1009" unicode="&#x1009;" 
d="M120 47v-219q0 -118 139 -118h233q138 0 138 118v132h80v-132q0 -198 -218 -198h-233q-219 0 -219 198v352l79 22q26 -122 181 -122q180 0 180 180t-180 180q-155 0 -181 -122l-79 22q37 180 260 180q260 0 260 -260t-260 -260q-115 0 -180 47z" />
    <glyph glyph-name="u100A" unicode="&#x100a;" horiz-adv-x="1040" 
d="M480 260q0 180 -180 180q-155 0 -181 -122l-79 22q37 180 260 180q260 0 260 -260q0 -180 180 -180t180 180t-180 180q-67 0 -109 -25l-49 69q61 36 158 36q260 0 260 -260t-260 -260q-158 0 -220 96q-62 -96 -220 -96q-115 0 -180 47v-219q0 -118 139 -118h523
q138 0 138 118v132h80v-132q0 -198 -218 -198h-523q-219 0 -219 198v197v155l79 22q26 -122 181 -122q180 0 180 180z" />
    <glyph glyph-name="u100B" unicode="&#x100b;" 
d="M560 -29q-90 -81 -260 -81q-91 0 -180 34v-65q90 -29 180 -29q162 0 260 64v-184h80v-80h-160v167q-91 -17 -180 -17q-157 0 -260 53v158l37 18q77 -69 223 -69q94 0 180 39v68q-65 -47 -180 -47q-260 0 -260 260t260 260q223 0 260 -180l-79 -22q-26 122 -181 122
q-180 0 -180 -180t180 -180q155 0 181 122l79 -22v-209z" />
    <glyph glyph-name="u100C" unicode="&#x100c;" 
d="M560 -172q0 -198 -188 -198h-143q-189 0 -189 159t189 159h103v-80h-103q-109 0 -109 -79t109 -79h143q108 0 108 118v219q-65 -47 -180 -47q-260 0 -260 260t260 260q223 0 260 -180l-79 -22q-26 122 -181 122q-180 0 -180 -180t180 -180q155 0 181 122l79 -22v-352z
" />
    <glyph glyph-name="u100D" unicode="&#x100d;" 
d="M120 47v-88q86 -39 180 -39q146 0 223 89l37 -18v-281h80v-80h-160v254q-89 -44 -180 -44q-170 0 -260 81v259l79 22q26 -122 181 -122q180 0 180 180t-180 180q-155 0 -181 -122l-79 22q37 180 260 180q260 0 260 -260t-260 -260q-115 0 -180 47z" />
    <glyph glyph-name="u100E" unicode="&#x100e;" 
d="M40 260q0 38 26 78t83 63q19 8 19 24q0 15 -20 15h-108v80h108q100 0 100 -93q0 -64 -64 -91t-64 -76q0 -180 180 -180t180 180q0 155 -122 181l22 79q180 -37 180 -260q0 -260 -260 -260t-260 260z" />
    <glyph glyph-name="u100F" unicode="&#x100f;" horiz-adv-x="1020" 
d="M574 81q-44 65 -44 179q0 116 45 180q-18 30 -65 30t-65 -30q45 -64 45 -180q0 -114 -44 -179q3 -31 64 -31t64 31zM612 479q54 41 143 41q225 0 225 -260t-225 -260v80q145 0 145 180t-145 180t-145 -180q0 -106 50 -149q-7 -111 -150 -111t-150 111q50 43 50 149
q0 180 -145 180t-145 -180t145 -180v-80q-225 0 -225 260t225 260q89 0 143 -41q30 41 102 41t102 -41z" />
    <glyph glyph-name="u1010" unicode="&#x1010;" horiz-adv-x="1040" 
d="M300 440q-180 0 -180 -180t180 -180t180 180t-180 180zM560 260q0 -260 -260 -260t-260 260t260 260q158 0 220 -96q62 96 220 96q260 0 260 -260t-260 -260q-97 0 -158 36l49 69q42 -25 109 -25q180 0 180 180t-180 180t-180 -180z" />
    <glyph glyph-name="u1011" unicode="&#x1011;" horiz-adv-x="1040" 
d="M740 440q-180 0 -180 -180t180 -180t180 180t-180 180zM300 440q-180 0 -180 -180t180 -180t180 180t-180 180zM520 424q62 96 220 96q260 0 260 -260t-260 -260q-158 0 -220 96q-62 -96 -220 -96q-260 0 -260 260t260 260q158 0 220 -96z" />
    <glyph glyph-name="u1012" unicode="&#x1012;" 
d="M330 300q150 6 150 67q0 73 -180 73t-180 -83h-80q0 163 260 163t260 -153q0 -72 -87 -107q87 -34 87 -107q0 -153 -260 -153t-260 163h80q0 -83 180 -83t180 73q0 61 -150 67h-30v80h30z" />
    <glyph glyph-name="u1013" unicode="&#x1013;" 
d="M477 214q3 21 3 46q0 180 -180 180t-180 -180q0 -25 3 -46q61 46 177 46t177 -46zM139 162q39 -82 161 -82t161 82q-52 48 -161 48t-161 -48zM300 520q260 0 260 -260t-260 -260t-260 260t260 260z" />
    <glyph glyph-name="u1014" unicode="&#x1014;" 
d="M259 82q-8 98 -89 98q-50 0 -50 -30q0 -61 139 -68zM260 2q-220 13 -220 148q0 90 120 90q53 0 122 -40q48 -34 57 -118q141 8 141 78q0 46 -79 67l-105 28q-156 42 -156 135q0 130 150 130q170 0 170 -140h-80q0 60 -90 60q-70 0 -70 -50q0 -32 89 -56l105 -28
q146 -39 146 -146q0 -144 -220 -158v-372h-80v372z" />
    <glyph glyph-name="u1015" unicode="&#x1015;" 
d="M40 260q0 223 180 260l22 -79q-122 -26 -122 -181q0 -180 180 -180t180 180q0 155 -122 181l22 79q180 -37 180 -260q0 -260 -260 -260t-260 260z" />
    <glyph glyph-name="u1016" unicode="&#x1016;" 
d="M452 146q-132 129 -132 287q0 48 12.5 67.5t47.5 19.5q180 -37 180 -260q0 -260 -260 -260t-260 260q0 223 180 260l22 -79q-122 -26 -122 -181q0 -180 180 -180q109 0 152 66zM370 438v-20q4 -127 102 -224q8 29 8 66q0 147 -110 178z" />
    <glyph glyph-name="u1017" unicode="&#x1017;" 
d="M175 410q-55 -46 -55 -150q0 -180 180 -180t180 180q0 104 -55 150q-43 -57 -125 -57t-125 57zM223 436q30 -33 77 -33t77 33q-9 3 -19 5l22 79q180 -37 180 -260q0 -260 -260 -260t-260 260q0 223 180 260l22 -79q-10 -2 -19 -5z" />
    <glyph glyph-name="u1018" unicode="&#x1018;" horiz-adv-x="1040" 
d="M480 260q0 180 -180 180q-155 0 -181 -122l-79 22q37 180 260 180q158 0 220 -96q62 96 220 96q260 0 260 -260t-260 -260q-97 0 -158 36l49 69q42 -25 109 -25q180 0 180 180t-180 180t-180 -180q0 -260 -260 -260q-223 0 -260 180l79 22q26 -122 181 -122
q180 0 180 180z" />
    <glyph glyph-name="u1019" unicode="&#x1019;" 
d="M139 162q39 -82 161 -82t161 82q-52 48 -161 48t-161 -48zM123 214q61 46 177 46t177 -46q3 21 3 46q0 155 -122 181l22 79q180 -37 180 -260q0 -260 -260 -260t-260 260q0 223 180 260l22 -79q-122 -26 -122 -181q0 -25 3 -46z" />
    <glyph glyph-name="u101A" unicode="&#x101a;" horiz-adv-x="1040" 
d="M300 0q-260 0 -260 260q0 223 180 260l22 -79q-122 -26 -122 -181q0 -180 180 -180t180 180q0 155 -122 181l22 79q180 -37 180 -260q0 -180 180 -180t180 180t-180 180q-67 0 -109 -25l-49 69q61 36 158 36q260 0 260 -260t-260 -260q-158 0 -220 96q-62 -96 -220 -96z
" />
    <glyph glyph-name="u101B" unicode="&#x101b;" 
d="M373 20q-21 -20 -73 -20q-260 0 -260 260t260 260t260 -260v-550h80v-80h-160v630q0 180 -180 180t-180 -180q0 -14 1 -26q25 6 45 6q93 0 155 -41q31 -20 52 -51q21 -30 21 -85q0 -23 -21 -43zM335 82q-6 39 -20 54q-18 18 -41 30q-47 24 -108 24q-16 0 -36 -6
q33 -104 170 -104q19 0 35 2z" />
    <glyph glyph-name="u101C" unicode="&#x101c;" horiz-adv-x="1040" 
d="M480 260q0 180 -180 180t-180 -180t180 -180q67 0 109 25l49 -69q-61 -36 -158 -36q-260 0 -260 260t260 260t260 -260q0 -180 180 -180t180 180t-180 180q-67 0 -109 -25l-49 69q61 36 158 36q260 0 260 -260t-260 -260t-260 260z" />
    <glyph glyph-name="u101D" unicode="&#x101d;" 
d="M300 440q-180 0 -180 -180t180 -180t180 180t-180 180zM300 520q260 0 260 -260t-260 -260t-260 260t260 260z" />
    <glyph glyph-name="u101E" unicode="&#x101e;" horiz-adv-x="1040" 
d="M300 440q-155 0 -181 -122l-79 22q37 180 260 180q260 0 260 -260q0 -180 180 -180t180 180t-180 180q-67 0 -109 -25l-49 69q61 36 158 36q260 0 260 -260t-260 -260q-158 0 -220 96q-62 -96 -220 -96q-223 0 -260 180l79 22q26 -122 181 -122q180 0 180 180t-180 180z
" />
    <glyph glyph-name="u101F" unicode="&#x101f;" horiz-adv-x="1040" 
d="M560 260q0 -260 -260 -260t-260 260q0 223 180 260l22 -79q-122 -26 -122 -181q0 -180 180 -180t180 180q0 155 -122 181l22 79q97 -20 142 -94q62 94 218 94q260 0 260 -260t-260 -260q-97 0 -158 36l49 69q42 -25 109 -25q180 0 180 180t-180 180t-180 -180z" />
    <glyph glyph-name="u1020" unicode="&#x1020;" 
d="M560 -79q-90 -81 -260 -81q-91 0 -180 34v-76q0 -88 109 -88h143q108 0 108 88h80q0 -168 -188 -168h-143q-189 0 -189 168v183l37 8q77 -69 223 -69q94 0 180 39v88q-65 -47 -180 -47q-260 0 -260 260t260 260q223 0 260 -180l-79 -22q-26 122 -181 122
q-180 0 -180 -180t180 -180q155 0 181 122l79 -22v-259z" />
    <glyph glyph-name="u1021" unicode="&#x1021;" horiz-adv-x="1020" 
d="M720 80q137 0 170 104q-20 6 -36 6q-61 0 -108 -24q-23 -12 -41 -30q-14 -15 -20 -54q16 -2 35 -2zM527 457q65 63 193 63q260 0 260 -260t-260 -260q-52 0 -73 20t-21 43q0 55 21 85q21 31 52 51q62 41 155 41q20 0 45 -6q1 12 1 26q0 180 -180 180q-120 0 -160 -80
q-4 -67 -87 -100q87 -34 87 -107q0 -153 -260 -153t-260 163h80q0 -83 180 -83t180 73q0 61 -150 67h-30v80h30q150 6 150 67q0 73 -180 73t-180 -83h-80q0 163 260 163q167 0 227 -63z" />
    <glyph glyph-name="u1022" unicode="&#x1022;" horiz-adv-x="1040" 
d="M300 520q158 0 220 -96q62 96 220 96q260 0 260 -260t-260 -260q-97 0 -158 36l49 69q42 -25 109 -25q180 0 180 180t-180 180t-180 -180q0 -223 -180 -260l-22 79q122 26 122 181q0 180 -180 180t-180 -180q0 -49 64 -76t64 -91q0 -93 -100 -93h-108v80h108q20 0 20 15
q0 16 -19 24q-57 23 -83 63t-26 78q0 260 260 260z" />
    <glyph glyph-name="u1023" unicode="&#x1023;" horiz-adv-x="1040" 
d="M790 -290h110v-80h-265q-17 0 -32 2l18 79q7 -1 14 -1q95 0 95 95t-95 95q-75 0 -75 -95q0 -148 -125 -171l-28 78q73 10 73 93q0 95 -95 95t-95 -95q0 -83 73 -93l-28 -78q-125 23 -125 171q0 175 175 175q81 0 125 -48q44 48 125 48q175 0 175 -175q0 -43 -20 -95z
M520 424q62 96 220 96q260 0 260 -260t-260 -260q-97 0 -158 36l49 69q42 -25 109 -25q180 0 180 180t-180 180t-180 -180q0 -223 -180 -260l-22 79q122 26 122 181q0 180 -180 180t-180 -180q0 -155 122 -181l-22 -79q-180 37 -180 260q0 260 260 260q158 0 220 -96z" />
    <glyph glyph-name="u1024" unicode="&#x1024;" horiz-adv-x="1200" 
d="M900 620q260 0 260 -240v-750h-80v750q0 160 -180 160q-175 0 -175 175t175 175t175 -175h-80q0 95 -95 95t-95 -95t95 -95zM1000 -172q0 -198 -188 -198h-583q-189 0 -189 159t189 159h593v-80h-593q-109 0 -109 -79t109 -79h583q108 0 108 118v432q0 180 -180 180
t-180 -180q0 -223 -180 -260l-22 79q122 26 122 181q0 180 -180 180t-180 -180q0 -155 122 -181l-22 -79q-180 37 -180 260q0 260 260 260q158 0 220 -96q62 96 220 96q260 0 260 -260v-432z" />
    <glyph glyph-name="u1025" unicode="&#x1025;" 
d="M120 -172q0 -118 108 -118h143q109 0 109 79t-109 79h-103v80h103q189 0 189 -159t-189 -159h-143q-188 0 -188 198v352l79 22q26 -122 181 -122q180 0 180 180t-180 180q-155 0 -181 -122l-79 22q37 180 260 180q260 0 260 -260t-260 -260q-115 0 -180 47v-219z" />
    <glyph glyph-name="u1026" unicode="&#x1026;" 
d="M120 -172q0 -118 108 -118h143q109 0 109 79t-109 79h-103v80h103q189 0 189 -159t-189 -159h-143q-188 0 -188 198v352l79 22q26 -122 181 -122q180 0 180 180t-180 180q-155 0 -181 -122l-79 22q37 180 260 180q260 0 260 -260t-260 -260q-115 0 -180 47v-219zM220 655
q22 -35 80 -35t80 35q-45 20 -80 20t-80 -20zM395 706v9q0 95 -95 95t-95 -95v-9q55 19 95 19t95 -19zM300 890q175 0 175 -175t-175 -175t-175 175t175 175z" />
    <glyph glyph-name="u1027" unicode="&#x1027;" 
d="M472 171l-14 -1q-138 -4 -230 -81q31 -9 72 -9q134 0 172 91zM181 112q124 108 292 108q48 0 67.5 -12.5t19.5 -27.5q-37 -180 -260 -180q-260 0 -260 260t260 260q223 0 260 -180q0 -15 -19.5 -27.5t-67.5 -12.5q-168 0 -292 108q-61 -43 -61 -148t61 -148zM228 431
q92 -77 230 -81l14 -1q-38 91 -172 91q-41 0 -72 -9z" />
    <glyph glyph-name="u1028" unicode="&#x1028;" 
d="M327 192v-63q0 -49 77 -49q76 0 76 180t-180 180t-180 -180v-370q0 -180 180 -180t180 180h80q0 -260 -260 -260t-260 260v370q0 260 260 260t260 -260t-156 -260q-157 0 -157 129v73l40 19q63 28 63 59q0 40 -49 40q-51 0 -51 -48h-50q0 98 101 98q99 0 99 -90
q0 -45 -73 -88z" />
    <glyph glyph-name="u1029" unicode="&#x1029;" horiz-adv-x="1200" 
d="M950 3v-165q0 -208 -218 -208h-473q-219 0 -219 208v844q0 208 219 208h543v-80h-543q-139 0 -139 -128v-844q0 -128 139 -128h473q138 0 138 128v163q-134 8 -190 95q-62 -96 -220 -96q-223 0 -260 180l79 22q26 -122 181 -122q180 0 180 180t-180 180q-155 0 -181 -122
l-79 22q37 180 260 180q260 0 260 -260q0 -180 180 -180t180 180t-180 180q-67 0 -109 -25l-49 69q61 36 158 36q260 0 260 -260q0 -234 -210 -257z" />
    <glyph glyph-name="u102A" unicode="&#x102a;" horiz-adv-x="2240" 
d="M181 112q124 128 292 128q48 0 67.5 -12.5t19.5 -37.5v-10q-37 -180 -260 -180q-260 0 -260 260t260 260q223 0 260 -180l-79 -22q-26 122 -181 122q-180 0 -180 -180q0 -104 61 -148zM478 190h-20q-138 -4 -231 -101q32 -9 73 -9q147 0 178 110zM1920 810q-95 0 -95 -95
t95 -95v-80q-175 0 -175 175t175 175t175 -175h-80q0 95 -95 95zM1760 260q0 -234 -210 -257v-165q0 -208 -218 -208h-473q-219 0 -219 208v844q0 208 219 208h543v-80h-543q-139 0 -139 -128v-844q0 -128 139 -128h473q138 0 138 128v163q-134 8 -190 95q-62 -96 -220 -96
q-223 0 -260 180l79 22q26 -122 181 -122q180 0 180 180t-180 180q-155 0 -181 -122l-79 22q37 180 260 180q260 0 260 -260q0 -180 180 -180t180 180t-180 180q-67 0 -109 -25l-49 69q61 36 158 36q158 0 220 -96q62 96 220 96q260 0 260 -260t-260 -260q-97 0 -158 36
l49 69q42 -25 109 -25q180 0 180 180t-180 180t-180 -180z" />
    <glyph glyph-name="u102B" unicode="&#x102b;" horiz-adv-x="160" 
d="M-50 770q-90 0 -90 -103h-80q0 183 170 183t170 -183v-667h-80v667q0 103 -90 103z" />
    <glyph glyph-name="u102C" unicode="&#x102c;" horiz-adv-x="440" 
d="M140 80q180 0 180 180t-180 180t-180 -180h-80q0 260 260 260t260 -260t-260 -260q-97 0 -158 36l49 69q42 -25 109 -25z" />
    <glyph glyph-name="u102D" unicode="&#x102d;" horiz-adv-x="0" 
d="M-300 810q-95 0 -95 -95t95 -95t95 95t-95 95zM-300 890q175 0 175 -175t-175 -175t-175 175t175 175z" />
    <glyph glyph-name="u102E" unicode="&#x102e;" horiz-adv-x="0" 
d="M-380 655q22 -35 80 -35t80 35q-45 20 -80 20t-80 -20zM-205 706v9q0 95 -95 95t-95 -95v-9q55 19 95 19t95 -19zM-300 890q175 0 175 -175t-175 -175t-175 175t175 175z" />
    <glyph glyph-name="u102F" unicode="&#x102f;" horiz-adv-x="0" 
d="M-260 -290h96v-80h-176v350h80v-270z" />
    <glyph glyph-name="u1030" unicode="&#x1030;" horiz-adv-x="0" 
d="M-420 -20h80v-350h-80v350zM-260 -20h80v-270h96v-80h-176v350z" />
    <glyph glyph-name="u1031" unicode="&#x1031;" 
d="M181 112q124 128 292 128q48 0 67.5 -12.5t19.5 -37.5v-10q-37 -180 -260 -180q-260 0 -260 260t260 260q223 0 260 -180l-79 -22q-26 122 -181 122q-180 0 -180 -180q0 -104 61 -148zM478 190h-20q-138 -4 -231 -101q32 -9 73 -9q147 0 178 110z" />
    <glyph glyph-name="u1032" unicode="&#x1032;" horiz-adv-x="0" 
d="M-419 888l294 -295l-56 -56l-295 295z" />
    <glyph glyph-name="u1033" unicode="&#x1033;" horiz-adv-x="0" 
d="M-300 820q-105 0 -105 -105t105 -105t105 105t-105 105zM-300 890q175 0 175 -175t-175 -175t-175 175t175 175zM-300 780q65 0 65 -65t-65 -65t-65 65t65 65zM-285 715q0 15 -15 15t-15 -15t15 -15t15 15z" />
    <glyph glyph-name="u1034" unicode="&#x1034;" horiz-adv-x="0" 
d="M-125 832l-294 -295l-57 56l295 295z" />
    <glyph glyph-name="u1035" unicode="&#x1035;" horiz-adv-x="0" 
d="M-300 540q-175 0 -175 175t175 175q140 0 168 -113l-77 -30q-14 63 -91 63q-95 0 -95 -95v-3q51 13 95 13q64 0 115.5 -21.5t51.5 -54.5q-29 -109 -167 -109zM-385 658q17 -48 85 -48t85 48q-44 17 -85 17t-85 -17z" />
    <glyph glyph-name="u1036" unicode="&#x1036;" horiz-adv-x="0" 
d="M-300 760q110 0 110 -110t-110 -110t-110 110t110 110zM-260 650q0 40 -40 40t-40 -40t40 -40t40 40z" />
    <glyph glyph-name="u1037" unicode="&#x1037;" horiz-adv-x="0" 
d="M-300 -50q110 0 110 -110t-110 -110t-110 110t110 110zM-260 -160q0 40 -40 40t-40 -40t40 -40t40 40z" />
    <glyph glyph-name="u1038" unicode="&#x1038;" horiz-adv-x="300" 
d="M150 520q110 0 110 -110t-110 -110t-110 110t110 110zM190 410q0 40 -40 40t-40 -40t40 -40t40 40zM150 220q110 0 110 -110t-110 -110t-110 110t110 110zM190 110q0 40 -40 40t-40 -40t40 -40t40 40z" />
    <glyph glyph-name="u1039" unicode="&#x1039;" horiz-adv-x="0" 
d="M-325 -160h-90v50h90v90h50v-90h90v-50h-90v-90h-50v90z" />
    <glyph glyph-name="u103A" unicode="&#x103a;" horiz-adv-x="0" 
d="M-300 810q-95 0 -95 -95t95 -95v-80q-175 0 -175 175t175 175t175 -175h-80q0 95 -95 95z" />
    <glyph glyph-name="u103B" unicode="&#x103b;" horiz-adv-x="160" 
d="M40 -370l-235 122v228h80v-179l155 -86v805h80v-890h-80z" />
    <glyph glyph-name="u103C" unicode="&#x103c;" horiz-adv-x="160" 
d="M40 682q0 208 219 208h263q218 0 218 -208v-82h-80v82q0 128 -138 128h-263q-139 0 -139 -128v-844q0 -128 139 -128h263q138 0 138 128v262h80v-262q0 -208 -218 -208h-263q-219 0 -219 208v844z" />
    <glyph glyph-name="u103D" unicode="&#x103d;" horiz-adv-x="0" 
d="M-300 -100q-95 0 -95 -95t95 -95t95 95t-95 95zM-300 -20q175 0 175 -175t-175 -175t-175 175t175 175z" />
    <glyph glyph-name="u103E" unicode="&#x103e;" horiz-adv-x="0" 
d="M-340 -20h80v-350h-176v80h96v270z" />
    <glyph glyph-name="u103F" unicode="&#x103f;" horiz-adv-x="1480" 
d="M960 96q-62 -96 -220 -96t-220 96q-62 -96 -220 -96q-223 0 -260 180l79 22q26 -122 181 -122q180 0 180 180t-180 180q-155 0 -181 -122l-79 22q37 180 260 180q260 0 260 -260q0 -180 180 -180t180 180t-180 180q-67 0 -109 -25l-49 69q61 36 158 36q260 0 260 -260
q0 -180 180 -180t180 180t-180 180q-67 0 -109 -25l-49 69q61 36 158 36q260 0 260 -260t-260 -260q-158 0 -220 96z" />
    <glyph glyph-name="u1040" unicode="&#x1040;" 
d="M300 440q-180 0 -180 -180t180 -180t180 180t-180 180zM300 520q260 0 260 -260t-260 -260t-260 260t260 260z" />
    <glyph glyph-name="u1041" unicode="&#x1041;" 
d="M560 260q0 -260 -260 -260q-223 0 -260 180l79 22q26 -122 181 -122q180 0 180 180t-180 180q-155 0 -181 -122l-79 22q37 180 260 180q260 0 260 -260z" />
    <glyph glyph-name="u1042" unicode="&#x1042;" 
d="M40 -40h80q0 -180 180 -180t180 180v560h80v-560q0 -260 -260 -260t-260 260z" />
    <glyph glyph-name="u1043" unicode="&#x1043;" 
d="M130 40q-71 45 -90 140l79 22q26 -122 181 -122q180 0 180 180t-180 180q-155 0 -181 -122l-79 22q37 180 260 180q260 0 260 -260t-260 -260q-14 0 -28 1l204 -205l-56 -56l-295 295z" />
    <glyph glyph-name="u1044" unicode="&#x1044;" 
d="M475 35l-295 -295l-56 56l204 205q-14 -1 -28 -1q-260 0 -260 260t260 260q223 0 260 -180l-79 -22q-26 122 -181 122q-180 0 -180 -180t180 -180q155 0 181 122l79 -22q-19 -95 -90 -140z" />
    <glyph glyph-name="u1045" unicode="&#x1045;" 
d="M145 370h5q110 0 110 -110t-110 -110t-110 110q0 260 260 260t260 -260v-297q0 -263 -260 -263t-260 263h80q0 -183 180 -183t180 183v297q0 180 -180 180q-112 0 -155 -70zM190 260q0 40 -40 40t-40 -40t40 -40t40 40z" />
    <glyph glyph-name="u1046" unicode="&#x1046;" 
d="M246 410q0 110 110 110t110 -110q0 -40 -14 -65l8 -4l100 -50v-31q0 -260 -260 -260t-260 260v300q0 260 260 260t260 -260h-80q0 180 -180 180t-180 -180v-300q0 -180 180 -180q164 0 178 160l-181 91q-51 24 -51 79zM396 410q0 40 -40 40t-40 -40q0 -30 40 -30t40 30z
" />
    <glyph glyph-name="u1047" unicode="&#x1047;" 
d="M480 260q0 180 -180 180t-180 -150q0 -99 125 -172l-35 -58q-170 40 -170 230q0 230 260 230t260 -260q0 -134 -165 -243.5t-165 -216.5q0 -70 65 -70t65 70v50h80v-50q0 -150 -145 -150t-145 150q0 132 165 241.5t165 218.5z" />
    <glyph glyph-name="u1048" unicode="&#x1048;" 
d="M280 84q0 -45 -12.5 -64.5t-37.5 -19.5h-10q-180 37 -180 260q0 260 260 260t260 -260q0 -223 -180 -260l-22 79q122 26 122 181q0 180 -180 180q-109 0 -152 -66q132 -123 132 -290zM120 260q0 -147 110 -178q-4 152 -103 244q-7 -29 -7 -66z" />
    <glyph glyph-name="u1049" unicode="&#x1049;" 
d="M297 189l181 91q-14 160 -178 160q-180 0 -180 -180v-300q0 -180 180 -180t180 180h80q0 -260 -260 -260t-260 260v300q0 260 260 260t260 -260v-31l-100 -50l-8 -4q14 -25 14 -65q0 -110 -110 -110t-110 110q0 55 51 79zM356 140q-40 0 -40 -30q0 -40 40 -40t40 40
q0 30 -40 30z" />
    <glyph glyph-name="u104A" unicode="&#x104a;" horiz-adv-x="160" 
d="M120 520v-520h-80v520h80z" />
    <glyph glyph-name="u104B" unicode="&#x104b;" horiz-adv-x="300" 
d="M260 520v-520h-80v520h80zM120 520v-520h-80v520h80z" />
    <glyph glyph-name="u104C" unicode="&#x104c;" 
d="M300 810q-95 0 -95 -95t95 -95v-80q-175 0 -175 175t175 175t175 -175h-80q0 95 -95 95zM40 180l79 22q26 -122 181 -122q180 0 180 180t-180 180q-155 0 -181 -122l-79 22q37 180 260 180q260 0 260 -260t-260 -260q-115 0 -180 47v-88q86 -39 180 -39q146 0 223 69
l37 -8v-183q0 -168 -189 -168h-143q-188 0 -188 168h80q0 -88 108 -88h143q109 0 109 88v76q-89 -34 -180 -34q-170 0 -260 81v259z" />
    <glyph glyph-name="u104D" unicode="&#x104d;" horiz-adv-x="760" 
d="M229 -370q-189 0 -189 159t189 159h173v-80h-173q-109 0 -109 -79t109 -79h303q108 0 108 118v552q0 160 -160 160q-175 0 -175 175t175 175t175 -175h-80q0 95 -95 95t-95 -95t95 -95q240 0 240 -240v-552q0 -198 -188 -198h-303zM480 260q0 180 -180 180t-180 -180
q0 -14 1 -26q25 6 45 6q93 0 155 -41q31 -20 52 -51q21 -30 21 -85q0 -23 -21 -43t-73 -20q-260 0 -260 260t260 260t260 -260v-458h-80v458zM335 82q-6 39 -20 54q-18 18 -41 30q-47 24 -108 24q-16 0 -36 -6q33 -104 170 -104q19 0 35 2z" />
    <glyph glyph-name="u104E" unicode="&#x104e;" 
d="M560 -370h-80v417q-65 -47 -180 -47q-260 0 -260 260t260 260q223 0 260 -180l-79 -22q-26 122 -181 122q-180 0 -180 -180t180 -180q155 0 181 122l79 -22v-550z" />
    <glyph glyph-name="u104F" unicode="&#x104f;" horiz-adv-x="920" 
d="M800 380q0 180 -160 180q-175 0 -175 155q0 175 175 175t175 -175h-80q0 95 -95 95t-95 -95q0 -75 95 -75q240 0 240 -260v-380h-80v380zM472 171l-14 -1q-138 -4 -230 -81q31 -9 72 -9q134 0 172 91zM228 431q92 -77 230 -81l14 -1q-38 91 -172 91q-41 0 -72 -9z
M483 470q37 50 107 50q130 0 130 -183v-337h-80v337q0 103 -50 103q-40 0 -55 -31q17 -30 25 -69q0 -15 -19.5 -27.5t-67.5 -12.5q-168 0 -292 108q-61 -43 -61 -148t61 -148q124 108 292 108q48 0 67.5 -12.5t19.5 -27.5q-37 -180 -260 -180q-260 0 -260 260t260 260
q117 0 183 -50z" />
    <glyph glyph-name="u1050" unicode="&#x1050;" 
d="M300 310q50 0 50 -50t-50 -50t-50 50t50 50zM300 520q260 0 260 -260q0 -223 -180 -260l-22 79q122 26 122 181q0 180 -180 180t-180 -180q0 -155 122 -181l-22 -79q-180 37 -180 260q0 260 260 260z" />
    <glyph glyph-name="u1051" unicode="&#x1051;" 
d="M250 260q0 50 50 50t50 -50t-50 -50t-50 50zM40 260q0 223 180 260l22 -79q-122 -26 -122 -181q0 -180 180 -180t180 180q0 155 -122 181l22 79q180 -37 180 -260q0 -260 -260 -260t-260 260z" />
    <glyph glyph-name="u1052" unicode="&#x1052;" 
d="M300 0q-260 0 -260 260q0 223 180 260l22 -79q-122 -26 -122 -181q0 -180 180 -180t180 180q0 49 -64 76t-64 91q0 93 100 93h108v-80h-108q-20 0 -20 -15q0 -16 19 -24q57 -23 83 -63t26 -78q0 -260 -260 -260z" />
    <glyph glyph-name="u1053" unicode="&#x1053;" 
d="M300 0q-260 0 -260 260q0 38 26 78t83 63q19 8 19 24q0 15 -20 15h-108v80h108q100 0 100 -93q0 -64 -64 -91t-64 -76q0 -180 180 -180t180 180q0 49 -64 76t-64 91q0 93 100 93h108v-80h-108q-20 0 -20 -15q0 -16 19 -24q57 -23 83 -63t26 -78q0 -260 -260 -260z" />
    <glyph glyph-name="u1054" unicode="&#x1054;" 
d="M120 260q0 -180 180 -180q155 0 181 122l79 -22q-37 -180 -260 -180q-260 0 -260 260t260 260q223 0 260 -180v-10q0 -25 -19.5 -37.5t-67.5 -12.5q-168 0 -292 128q-61 -44 -61 -148zM300 440q-41 0 -73 -9q93 -97 231 -101h20q-31 110 -178 110z" />
    <glyph glyph-name="u1055" unicode="&#x1055;" 
d="M300 440q-41 0 -73 -9q93 -97 231 -101h20q-31 110 -178 110zM120 260q0 -180 78 -180q48 0 84 71q-2 18 -2 39h70q0 -110 63 -110q53 0 68 120l79 -15q-32 -185 -146 -185q-64 0 -101 74q-47 -74 -110 -74q-163 0 -163 260t260 260q223 0 260 -180v-10
q0 -25 -19.5 -37.5t-67.5 -12.5q-168 0 -292 128q-61 -44 -61 -148z" />
    <glyph glyph-name="u1056" unicode="&#x1056;" horiz-adv-x="440" 
d="M140 0q-260 0 -260 260h80q0 -180 180 -180t180 180q0 49 -64 76t-64 91q0 93 100 93h108v-80h-108q-20 0 -20 -15q0 -16 19 -24q57 -23 83 -63t26 -78q0 -260 -260 -260z" />
    <glyph glyph-name="u1057" unicode="&#x1057;" horiz-adv-x="420" 
d="M380 260q0 -260 -163 -260q-63 0 -110 74q-37 -74 -101 -74q-114 0 -146 185l79 15q15 -110 68 -110q63 0 63 100h70q0 -21 -2 -39q36 -61 84 -61q78 0 78 170q0 49 -64 76t-64 91q0 93 100 93h108v-80h-108q-20 0 -20 -15q0 -16 19 -24q57 -23 83 -63t26 -78z" />
    <glyph glyph-name="u1058" unicode="&#x1058;" horiz-adv-x="0" 
d="M-133 -129q0 -23 -92 -63q-31 -13 -75 -13t-95 13v-3q0 -95 95 -95q77 0 91 63l77 -30q-28 -113 -168 -113q-175 0 -175 175t175 175q138 0 167 -109zM-300 -155q41 0 85 17q-17 48 -85 48t-85 -48q44 -17 85 -17z" />
    <glyph glyph-name="u1059" unicode="&#x1059;" horiz-adv-x="0" 
d="M-300 -155q41 0 85 17q-17 48 -85 48t-85 -48q44 -17 85 -17zM-475 -195q0 175 175 175q138 0 167 -109q0 -23 -92 -63q-31 -13 -75 -13t-95 13v-3q0 -115 50 -115q30 0 30 65h50q0 -65 40 -65t40 65h60q0 -125 -100 -125q-40 0 -65 31q-25 -31 -65 -31q-120 0 -120 175z
" />
    <glyph glyph-name="u105A" unicode="&#x105a;" 
d="M345 -125q0 35 -45 35t-45 -35h-70q0 105 115 105t115 -105q0 -63 -55 -95t-55 -51q0 -29 45 -29h33v-70h-33q-115 0 -115 99q0 50 55 79t55 67zM300 520q223 0 260 -180l-79 -22q-26 122 -181 122q-180 0 -180 -180t180 -180q155 0 181 122l79 -22q-37 -180 -260 -180
q-260 0 -260 260t260 260z" />
    <glyph glyph-name="u105B" unicode="&#x105b;" horiz-adv-x="760" 
d="M395 10v-222q0 -78 69 -78h107q69 0 69 78v425q-100 12 -135 67q-27 -27 -81 -27q-110 0 -110 110q0 33 28 74q-20 3 -42 3q-180 0 -180 -180t180 -180q155 0 181 122l79 -22q-28 -137 -165 -170zM480 324q-18 73 -85 100q-31 -32 -31 -61q0 -60 60 -60q27 0 56 21z
M315 0h-15q-260 0 -260 260t260 260q223 0 260 -180l-22 -6q15 -60 102 -72v258h80v-732q0 -158 -149 -158h-107q-149 0 -149 158v212z" />
    <glyph glyph-name="u105C" unicode="&#x105c;" 
d="M300 440q-180 0 -180 -180t180 -180t180 180t-180 180zM300 520q260 0 260 -260t-260 -260t-260 260t260 260zM300 360q100 0 100 -100t-100 -100t-100 100t100 100zM335 260q0 35 -35 35t-35 -35t35 -35t35 35z" />
    <glyph glyph-name="u105D" unicode="&#x105d;" 
d="M139 162q39 -82 161 -82t161 82q-52 48 -161 48t-161 -48zM495 65q65 -42 65 -153v-104q0 -178 -188 -178h-143q-189 0 -189 149t189 149h103v-80h-103q-109 0 -109 -69t109 -69h143q108 0 108 98v104q0 85 -33 118q-58 -30 -147 -30q-260 0 -260 260q0 223 180 260
l22 -79q-122 -26 -122 -181q0 -25 3 -46q61 46 177 46t177 -46q3 21 3 46q0 155 -122 181l22 79q180 -37 180 -260q0 -130 -65 -195z" />
    <glyph glyph-name="u105E" unicode="&#x105e;" horiz-adv-x="0" 
d="M-40 -192q0 -178 -188 -178h-143q-189 0 -189 149t189 149h251q-3 72 -33 102l48 35q60 -39 65 -137h102v-80h-102v-40zM-120 -152h-251q-109 0 -109 -69t109 -69h143q108 0 108 98v40z" />
    <glyph glyph-name="u105F" unicode="&#x105f;" horiz-adv-x="0" 
d="M-250 -111q-125 0 -125 -82t75 -82t75 87h80q0 -167 -155 -167t-155 162q0 144 193 158v35l82 -1v-111z" />
    <glyph glyph-name="u1060" unicode="&#x1060;" horiz-adv-x="0" 
d="M-327 -220h176v-80h-277l-21 41l175 213l52 -49z" />
    <glyph glyph-name="u1061" unicode="&#x1061;" 
d="M335 82q-6 39 -20 54q-18 18 -41 30q-47 24 -108 24q-16 0 -36 -6q33 -104 170 -104q19 0 35 2zM383 31v-401h-166v80h86v290h-3q-260 0 -260 260t260 260t260 -260v-550h80v-80h-160v630q0 180 -180 180t-180 -180q0 -14 1 -26q25 6 45 6q93 0 155 -41q31 -20 52 -51
q21 -30 21 -85q0 -17 -11 -32z" />
    <glyph glyph-name="u1062" unicode="&#x1062;" horiz-adv-x="160" 
d="M120 0h-80v440h-80v80h160v-520z" />
    <glyph glyph-name="u1063" unicode="&#x1063;" 
d="M120 47v-417h-80v550l79 22q26 -122 181 -122q180 0 180 180t-180 180q-155 0 -181 -122l-79 22q37 180 260 180q260 0 260 -260t-260 -260q-115 0 -180 47z" />
    <glyph glyph-name="u1064" unicode="&#x1064;" horiz-adv-x="160" 
d="M120 80h80v-80h-160v440h-80v80h160v-440z" />
    <glyph glyph-name="u1065" unicode="&#x1065;" 
d="M560 260q0 -260 -260 -260q-223 0 -260 180l79 22q26 -122 181 -122q180 0 180 180t-180 180q-155 0 -181 -122l-79 22q37 180 260 180q260 0 260 -260z" />
    <glyph glyph-name="u1066" unicode="&#x1066;" 
d="M461 38v-408h-186v80h106v298q-37 -8 -81 -8q-260 0 -260 260q0 223 180 260l22 -79q-122 -26 -122 -181q0 -180 180 -180t180 180q0 155 -122 181l22 79q180 -37 180 -260q0 -160 -99 -222z" />
    <glyph glyph-name="u1067" unicode="&#x1067;" horiz-adv-x="220" 
d="M115 100q0 35 -35 35t-35 -35t35 -35t35 35zM100 200v320h80v-420q0 -100 -100 -100t-100 100t120 100z" />
    <glyph glyph-name="u1068" unicode="&#x1068;" horiz-adv-x="180" 
d="M130 0h-170v90h90v430h80v-520zM90 740q100 0 100 -100t-100 -100t-100 100t100 100zM125 640q0 35 -35 35t-35 -35t35 -35t35 35z" />
    <glyph glyph-name="u1069" unicode="&#x1069;" horiz-adv-x="292" 
d="M120 143q0 -63 87 -63h45v-80h-45q-167 0 -167 143q0 79 66 127.5t66 105.5q0 64 -87 64h-45v80h45q167 0 167 -144q0 -79 -66 -127.5t-66 -105.5z" />
    <glyph glyph-name="u106A" unicode="&#x106a;" horiz-adv-x="160" 
d="M-15 80q55 0 55 93v347h80v-347q0 -173 -135 -173t-135 173h80q0 -93 55 -93z" />
    <glyph glyph-name="u106B" unicode="&#x106b;" horiz-adv-x="160" 
d="M-70 347h-80q0 173 135 173t135 -173v-347h-80v347q0 93 -55 93t-55 -93z" />
    <glyph glyph-name="u106C" unicode="&#x106c;" horiz-adv-x="160" 
d="M230 173h80q0 -173 -135 -173t-135 173v347h80v-347q0 -93 55 -93t55 93z" />
    <glyph glyph-name="u106D" unicode="&#x106d;" horiz-adv-x="292" 
d="M40 376q0 144 167 144h45v-80h-45q-87 0 -87 -64q0 -57 66 -105.5t66 -127.5q0 -143 -167 -143h-45v80h45q87 0 87 63q0 57 -66 105.5t-66 127.5z" />
    <glyph glyph-name="u106E" unicode="&#x106e;" horiz-adv-x="1220" 
d="M390 510q40 10 90 10q158 0 220 -96q62 96 220 96q260 0 260 -260t-260 -260q-97 0 -158 36l49 69q42 -25 109 -25q180 0 180 180t-180 180t-180 -180q0 -223 -180 -260l-22 79q122 26 122 181q0 165 -150 179q50 -64 50 -179q0 -223 -180 -260l-22 79q122 26 122 181
q0 180 -180 180t-180 -180q0 -155 122 -181l-22 -79q-180 37 -180 260q0 260 260 260q50 0 90 -10z" />
    <glyph glyph-name="u106F" unicode="&#x106f;" horiz-adv-x="1040" 
d="M795 3v-373h-176v80h96v291q-80 4 -133 35l49 69q42 -25 109 -25q180 0 180 180t-180 180t-180 -180q0 -260 -260 -260t-260 260q0 223 180 260l22 -79q-122 -26 -122 -181q0 -180 180 -180t180 180q0 155 -122 181l22 79q97 -20 142 -94q62 94 218 94q260 0 260 -260
q0 -231 -205 -257z" />
    <glyph glyph-name="u1070" unicode="&#x1070;" horiz-adv-x="1040" 
d="M795 3v-373h-176v80h96v291q-138 7 -195 95q-62 -96 -220 -96q-260 0 -260 260q0 38 26 78t83 63q19 8 19 24q0 15 -20 15h-108v80h108q100 0 100 -93q0 -64 -64 -91t-64 -76q0 -180 180 -180t180 180q0 155 -122 181l22 79q180 -37 180 -260q0 -180 180 -180t180 180
t-180 180q-67 0 -109 -25l-49 69q61 36 158 36q260 0 260 -260q0 -231 -205 -257z" />
    <glyph glyph-name="u1071" unicode="&#x1071;" horiz-adv-x="0" 
d="M-193 825q93 0 93 -100t-93 -100t-93 100t93 100zM-158 725q0 35 -35 35t-35 -35t35 -35t35 35zM-407 825q93 0 93 -100t-93 -100t-93 100t93 100zM-372 725q0 35 -35 35t-35 -35t35 -35t35 35z" />
    <glyph glyph-name="u1072" unicode="&#x1072;" horiz-adv-x="0" 
d="M-473 715q0 175 175 175q148 0 171 -125l-78 -28q-10 73 -93 73q-95 0 -95 -95t95 -95q83 0 93 73l78 -28q-23 -125 -171 -125q-175 0 -175 175z" />
    <glyph glyph-name="u1073" unicode="&#x1073;" horiz-adv-x="0" 
d="M-300 849l264 -264l-66 -55l-198 198l-199 -198l-65 55z" />
    <glyph glyph-name="u1074" unicode="&#x1074;" horiz-adv-x="0" 
d="M-300 542q-175 0 -175 175q0 148 125 171l28 -78q-73 -10 -73 -93q0 -95 95 -95t95 95q0 83 -73 93l28 78q125 -23 125 -171q0 -175 -175 -175z" />
    <glyph glyph-name="u1075" unicode="&#x1075;" 
d="M300 520q260 0 260 -260q0 -223 -180 -260l-22 79q122 26 122 181q0 180 -180 180t-180 -180q0 -49 64 -76t64 -91q0 -93 -100 -93h-108v80h108q20 0 20 15q0 16 -19 24q-57 23 -83 63t-26 78q0 260 260 260z" />
    <glyph glyph-name="u1076" unicode="&#x1076;" 
d="M366 87q-92 99 -244 103q31 -110 178 -110q37 0 66 7zM43 352q-73 19 -73 119v49h50v-49q0 -56 41 -69q59 118 239 118q260 0 260 -260t-260 -260q-223 0 -260 180v10q0 25 19.5 37.5t64.5 12.5q167 0 290 -132q66 43 66 152q0 180 -180 180q-155 0 -181 -122l-79 22
q1 6 3 12z" />
    <glyph glyph-name="u1077" unicode="&#x1077;" 
d="M480 260q0 37 -8 66q-98 -97 -102 -224v-20q110 31 110 178zM300 440q-180 0 -180 -180q0 -49 64 -76t64 -91q0 -93 -100 -93h-108v80h108q20 0 20 15q0 16 -19 24q-57 23 -83 63t-26 78q0 260 260 260t260 -260q0 -223 -180 -260q-35 0 -47.5 19.5t-12.5 67.5
q0 158 132 287q-43 66 -152 66z" />
    <glyph glyph-name="u1078" unicode="&#x1078;" horiz-adv-x="1040" 
d="M560 260q0 -180 180 -180t180 180t-180 180t-180 -180zM300 440q-180 0 -180 -180t180 -180q67 0 109 25l49 -69q-61 -36 -158 -36q-260 0 -260 260t260 260q158 0 220 -96q62 96 220 96q260 0 260 -260t-260 -260t-260 260q0 180 -180 180z" />
    <glyph glyph-name="u1079" unicode="&#x1079;" horiz-adv-x="1040" 
d="M560 260q0 -180 180 -180t180 180t-180 180t-180 -180zM335 82q-6 39 -20 54q-18 18 -41 30q-47 24 -108 24q-16 0 -36 -6q33 -104 170 -104q19 0 35 2zM40 260q0 260 260 260q158 0 220 -96q62 96 220 96q260 0 260 -260t-260 -260t-260 260q0 180 -180 180t-180 -180
q0 -14 1 -26q25 6 45 6q93 0 155 -41q31 -20 52 -51q21 -30 21 -85q0 -23 -21 -43t-73 -20q-260 0 -260 260z" />
    <glyph glyph-name="u107A" unicode="&#x107a;" horiz-adv-x="1040" 
d="M560 52v-342h86v-80h-166v630q0 180 -180 180t-180 -180t180 -180q67 0 109 25l49 -69q-61 -36 -158 -36q-260 0 -260 260t260 260t260 -260q0 -180 180 -180t180 180t-180 180q-67 0 -109 -25l-49 69q61 36 158 36q260 0 260 -260t-260 -260q-116 0 -180 52z" />
    <glyph glyph-name="u107B" unicode="&#x107b;" horiz-adv-x="1040" 
d="M300 440q-180 0 -180 -180t180 -180t180 180t-180 180zM740 80q137 0 170 104q-20 6 -36 6q-61 0 -108 -24q-23 -12 -41 -30q-14 -15 -20 -54q16 -2 35 -2zM740 0q-52 0 -73 20t-21 43q0 55 21 85q21 31 52 51q62 41 155 41q20 0 45 -6q1 12 1 26q0 180 -180 180
t-180 -180q0 -260 -260 -260t-260 260t260 260q158 0 220 -96q62 96 220 96q260 0 260 -260t-260 -260z" />
    <glyph glyph-name="u107C" unicode="&#x107c;" horiz-adv-x="1040" 
d="M740 80q147 0 178 110q-152 -4 -244 -103q29 -7 66 -7zM366 87q-92 99 -244 103q31 -110 178 -110q37 0 66 7zM560 260q0 -109 66 -152q123 132 290 132q45 0 64.5 -12.5t19.5 -37.5v-10q-37 -180 -260 -180q-158 0 -220 96q-62 -96 -220 -96q-223 0 -260 180v10
q0 25 19.5 37.5t64.5 12.5q167 0 290 -132q66 43 66 152q0 180 -180 180q-155 0 -181 -122l-79 22q37 180 260 180q158 0 220 -96q62 96 220 96q223 0 260 -180l-79 -22q-26 122 -181 122q-180 0 -180 -180z" />
    <glyph glyph-name="u107D" unicode="&#x107d;" horiz-adv-x="1040" 
d="M740 80q147 0 178 110q-152 -4 -244 -103q29 -7 66 -7zM520 96q-62 -96 -220 -96q-260 0 -260 260q0 38 26 78t83 63q19 8 19 24q0 15 -20 15h-108v80h108q100 0 100 -93q0 -64 -64 -91t-64 -76q0 -180 180 -180t180 180q0 260 260 260q223 0 260 -180l-79 -22
q-26 122 -181 122q-180 0 -180 -180q0 -109 66 -152q123 132 290 132q45 0 64.5 -12.5t19.5 -37.5v-10q-37 -180 -260 -180q-158 0 -220 96z" />
    <glyph glyph-name="u107E" unicode="&#x107e;" horiz-adv-x="1040" 
d="M740 80q147 0 178 110q-152 -4 -244 -103q29 -7 66 -7zM775 1v-371h-166v80h86v292q-122 12 -175 94q-62 -96 -220 -96q-260 0 -260 260q0 38 26 78t83 63q19 8 19 24q0 15 -20 15h-108v80h108q100 0 100 -93q0 -64 -64 -91t-64 -76q0 -180 180 -180t180 180
q0 260 260 260q223 0 260 -180l-79 -22q-26 122 -181 122q-180 0 -180 -180q0 -109 66 -152q123 132 290 132q45 0 64.5 -12.5t19.5 -37.5v-10q-34 -165 -225 -179z" />
    <glyph glyph-name="u107F" unicode="&#x107f;" 
d="M148 146q43 -66 152 -66q180 0 180 180q0 155 -122 181l22 79q180 -37 180 -260q0 -260 -260 -260t-260 260q0 223 180 260h10q25 0 37.5 -19.5t12.5 -64.5q0 -167 -132 -290zM127 194q99 92 103 244q-110 -31 -110 -178q0 -37 7 -66z" />
    <glyph glyph-name="u1080" unicode="&#x1080;" horiz-adv-x="1040" 
d="M366 87q-92 99 -244 103q31 -110 178 -110q37 0 66 7zM520 96q-62 -96 -220 -96q-223 0 -260 180v10q0 25 19.5 37.5t64.5 12.5q167 0 290 -132q66 43 66 152q0 180 -180 180q-155 0 -181 -122l-79 22q37 180 260 180q260 0 260 -260q0 -180 180 -180t180 180t-180 180
q-67 0 -109 -25l-49 69q61 36 158 36q260 0 260 -260t-260 -260q-158 0 -220 96z" />
    <glyph glyph-name="u1081" unicode="&#x1081;" 
d="M242 -370h-186v80h106v309q-122 57 -122 241q0 260 260 260t260 -260q0 -223 -180 -260l-22 79q122 26 122 181q0 180 -180 180t-180 -180q0 -155 122 -181v-449z" />
    <glyph glyph-name="u1082" unicode="&#x1082;" horiz-adv-x="0" 
d="M-300 -100q-95 0 -95 -95t95 -95t95 95h80q0 -175 -175 -175t-175 175t175 175q88 0 132 -44l-54 -57q-19 21 -78 21z" />
    <glyph glyph-name="u1083" unicode="&#x1083;" horiz-adv-x="160" 
d="M40 440h-80v80h160v-810h80v-80h-160v810z" />
    <glyph glyph-name="u1084" unicode="&#x1084;" 
d="M300 300v-80h-30q-150 -6 -150 -67q0 -73 180 -73t180 83h80q0 -163 -260 -163t-260 153q0 73 87 107q-87 35 -87 107q0 153 260 153t260 -163h-80q0 83 -180 83t-180 -73q0 -61 150 -67h30z" />
    <glyph glyph-name="u1085" unicode="&#x1085;" horiz-adv-x="0" 
d="M-384 715q-44 25 -44 75q0 100 175 100q47 0 81 -7l-9 -49q-28 6 -72 6q-105 0 -105 -50t105 -50v-50q-105 0 -105 -50t105 -50q44 0 72 6l9 -49q-34 -7 -81 -7q-175 0 -175 100q0 50 44 75z" />
    <glyph glyph-name="u1086" unicode="&#x1086;" horiz-adv-x="0" 
d="M-265 760q0 35 -35 35t-35 -35t35 -35t35 35zM-200 728q0 -175 -151 -217l-26 58q58 31 81 92q-104 7 -104 99q0 100 100 100t100 -100v-32z" />
    <glyph glyph-name="u1087" unicode="&#x1087;" horiz-adv-x="280" 
d="M175 100q0 35 -35 35t-35 -35t35 -35t35 35zM240 68q0 -175 -151 -217l-26 58q58 31 81 92q-104 7 -104 99q0 100 100 100t100 -100v-32z" />
    <glyph glyph-name="u1088" unicode="&#x1088;" horiz-adv-x="280" 
d="M140 520q100 0 100 -100t-100 -100t-100 100t100 100zM175 420q0 35 -35 35t-35 -35t35 -35t35 35zM175 100q0 35 -35 35t-35 -35t35 -35t35 35zM240 68q0 -175 -151 -217l-26 58q58 31 81 92q-104 7 -104 99q0 100 100 100t100 -100v-32z" />
    <glyph glyph-name="u1089" unicode="&#x1089;" horiz-adv-x="280" 
d="M140 200q100 0 100 -100t-100 -100t-100 100t100 100zM175 100q0 35 -35 35t-35 -35t35 -35t35 35z" />
    <glyph glyph-name="u108A" unicode="&#x108a;" horiz-adv-x="429" 
d="M175 420q0 35 -35 35t-35 -35t35 -35t35 35zM140 320q-100 0 -100 100t100 100q92 0 99 -104q61 23 92 81l58 -26q-42 -151 -217 -151h-32zM175 100q0 35 -35 35t-35 -35t35 -35t35 35zM140 0q-100 0 -100 100t100 100q92 0 99 -104q61 23 92 81l58 -26
q-42 -151 -217 -151h-32z" />
    <glyph glyph-name="u108B" unicode="&#x108b;" horiz-adv-x="280" 
d="M140 360q100 0 100 -100t-100 -100t-100 100t100 100zM175 260q0 35 -35 35t-35 -35t35 -35t35 35z" />
    <glyph glyph-name="u108C" unicode="&#x108c;" horiz-adv-x="520" 
d="M380 360q100 0 100 -100t-100 -100t-100 100t100 100zM415 260q0 35 -35 35t-35 -35t35 -35t35 35zM140 360q100 0 100 -100t-100 -100t-100 100t100 100zM175 260q0 35 -35 35t-35 -35t35 -35t35 35z" />
    <glyph glyph-name="u108D" unicode="&#x108d;" horiz-adv-x="0" 
d="M-75 -91v-80h-450v80h450z" />
    <glyph glyph-name="u108E" unicode="&#x108e;" 
d="M300 260q-116 0 -177 46q-3 -21 -3 -46q0 -180 180 -180t180 180q0 25 -3 46q-61 -46 -177 -46zM300 310q109 0 161 48q-39 82 -161 82t-161 -82q52 -48 161 -48zM40 260q0 260 260 260t260 -260t-260 -260t-260 260z" />
    <glyph glyph-name="u108F" unicode="&#x108f;" horiz-adv-x="280" 
d="M140 520q100 0 100 -100t-100 -100t-100 100t100 100zM175 420q0 35 -35 35t-35 -35t35 -35t35 35zM140 65q35 0 35 35t-35 35t-35 -35t35 -35zM40 100q0 100 100 100t100 -100q0 -92 -104 -99q23 -61 81 -92l-26 -58q-151 42 -151 217v32z" />
    <glyph glyph-name="u1090" unicode="&#x1090;" 
d="M300 440q-180 0 -180 -180t180 -180t180 180t-180 180zM300 520q260 0 260 -260t-260 -260t-260 260t260 260z" />
    <glyph glyph-name="u1091" unicode="&#x1091;" horiz-adv-x="350" 
d="M215 99l69 41l26 -73l-112 -67h-63v421l-69 -41l-26 73l112 67h63v-421z" />
    <glyph glyph-name="u1092" unicode="&#x1092;" 
d="M120 467q44 53 180 53q260 0 260 -260q0 -134 -160 -243.5t-160 -216.5h-80q0 132 160 241.5t160 218.5q0 180 -180 180t-180 -150h-80v270h80v-93z" />
    <glyph glyph-name="u1093" unicode="&#x1093;" horiz-adv-x="515" 
d="M314 450l-198 -450l-76 20l327 731l76 -20l-95 -213q127 -14 127 -171v-347h-80v347q0 103 -65 103h-16z" />
    <glyph glyph-name="u1094" unicode="&#x1094;" horiz-adv-x="508" 
d="M264 520h109v-421l69 41l26 -73l-112 -67h-63v396l-177 -396l-76 20z" />
    <glyph glyph-name="u1095" unicode="&#x1095;" horiz-adv-x="480" 
d="M360 340h-95q-145 0 -145 -130t120 -130t120 180v80zM440 420h50v-80h-50v-80q0 -260 -200 -260t-200 210t225 210h95v280h80v-280z" />
    <glyph glyph-name="u1096" unicode="&#x1096;" horiz-adv-x="480" 
d="M360 260q0 180 -120 180t-120 -130t145 -130h95v80zM440 -180h-80v280h-95q-225 0 -225 210t200 210t200 -260v-80h50v-80h-50v-280z" />
    <glyph glyph-name="u1097" unicode="&#x1097;" horiz-adv-x="480" 
d="M167 80h273v-80h-400v31l275 409h-275v80h400v-33z" />
    <glyph glyph-name="u1098" unicode="&#x1098;" 
d="M300 440q-180 0 -180 -180t180 -180t180 180t-180 180zM300 550q180 0 180 180h80q0 -179 -124 -235q124 -56 124 -235q0 -260 -260 -260t-260 260q0 179 124 235q-124 56 -124 235h80q0 -180 180 -180z" />
    <glyph glyph-name="u1099" unicode="&#x1099;" 
d="M480 470q0 180 -180 180t-180 -180t180 -180t180 180zM120 0h-80q0 179 124 235q-124 56 -124 235q0 260 260 260t260 -260q0 -179 -124 -235q124 -56 124 -235h-80q0 180 -180 180t-180 -180z" />
    <glyph glyph-name="u109A" unicode="&#x109a;" horiz-adv-x="280" 
d="M140 520q100 0 100 -100t-100 -100t-100 100t100 100zM175 420q0 35 -35 35t-35 -35t35 -35t35 35z" />
    <glyph glyph-name="u109B" unicode="&#x109b;" horiz-adv-x="280" 
d="M175 420q0 35 -35 35t-35 -35t35 -35t35 35zM240 388q0 -175 -151 -217l-26 58q58 31 81 92q-104 7 -104 99q0 100 100 100t100 -100v-32z" />
    <glyph glyph-name="u109C" unicode="&#x109c;" horiz-adv-x="429" 
d="M140 135q-35 0 -35 -35t35 -35t35 35t-35 35zM172 200q175 0 217 -151l-58 -26q-31 58 -92 81q-7 -104 -99 -104q-100 0 -100 100t100 100h32zM140 455q-35 0 -35 -35t35 -35t35 35t-35 35zM172 520q175 0 217 -151l-58 -26q-31 58 -92 81q-7 -104 -99 -104
q-100 0 -100 100t100 100h32z" />
    <glyph glyph-name="u109D" unicode="&#x109d;" horiz-adv-x="0" 
d="M-185 660q-65 0 -65 -63h-80q0 143 145 143t145 -183v-157h-80v157q0 103 -65 103z" />
    <glyph glyph-name="u109E" unicode="&#x109e;" horiz-adv-x="180" 
d="M50 440h-90v80h170v-810h90v-80h-170v810zM90 740q100 0 100 -100t-100 -100t-100 100t100 100zM125 640q0 35 -35 35t-35 -35t35 -35t35 35z" />
    <glyph glyph-name="u109F" unicode="&#x109f;" horiz-adv-x="760" 
d="M560 -240q0 -50 40 -50t40 50v620q0 160 -160 160q-175 0 -175 175t175 175t175 -175h-80q0 95 -95 95t-95 -95t95 -95q240 0 240 -240v-620q0 -130 -120 -130t-120 130v500q0 180 -180 180t-180 -180t180 -180q50 0 86 14l33 -76q-51 -18 -119 -18q-260 0 -260 260
t260 260t260 -260v-500z" />
    <glyph glyph-name="uAA60" unicode="&#xaa60;" horiz-adv-x="1040" 
d="M740 80q137 0 170 104q-20 6 -36 6q-61 0 -108 -24q-23 -12 -41 -30q-14 -15 -20 -54q16 -2 35 -2zM920 260q0 180 -180 180t-180 -180q0 -223 -180 -260l-22 79q122 26 122 181q0 180 -180 180t-180 -180q0 -155 122 -181l-22 -79q-180 37 -180 260q0 260 260 260
q158 0 220 -96q62 96 220 96q260 0 260 -260t-260 -260q-52 0 -73 20t-21 43q0 55 21 85q21 31 52 51q62 41 155 41q20 0 45 -6q1 12 1 26z" />
    <glyph glyph-name="uAA61" unicode="&#xaa61;" horiz-adv-x="1040" 
d="M740 440q-180 0 -180 -180t180 -180t180 180t-180 180zM480 260q0 180 -180 180t-180 -180q0 -49 64 -76t64 -91q0 -93 -100 -93h-108v80h108q20 0 20 15q0 16 -19 24q-57 23 -83 63t-26 78q0 260 260 260q158 0 220 -96q62 96 220 96q260 0 260 -260t-260 -260
q-156 0 -218 94q-45 -74 -142 -94l-22 79q122 26 122 181z" />
    <glyph glyph-name="uAA62" unicode="&#xaa62;" horiz-adv-x="777" 
d="M247 192l-180 -192h-27v520h80v-364l143 154l59 -50q0 -180 168 -180q167 0 167 180t-180 180q-59 0 -102 -17l-19 78q51 19 121 19q260 0 260 -260t-247 -260q-213 0 -243 192z" />
    <glyph glyph-name="uAA63" unicode="&#xaa63;" horiz-adv-x="1040" 
d="M480 260q0 37 -8 66q-98 -97 -102 -224v-20q110 31 110 178zM740 440q-180 0 -180 -180t180 -180t180 180t-180 180zM522 94q-45 -74 -142 -94q-35 0 -47.5 19.5t-12.5 67.5q0 158 132 287q-43 66 -152 66q-180 0 -180 -180q0 -49 64 -76t64 -91q0 -93 -100 -93h-108v80
h108q20 0 20 15q0 16 -19 24q-57 23 -83 63t-26 78q0 260 260 260q158 0 220 -96q62 96 220 96q260 0 260 -260t-260 -260q-156 0 -218 94z" />
    <glyph glyph-name="uAA64" unicode="&#xaa64;" horiz-adv-x="1040" 
d="M740 440q-180 0 -180 -180t180 -180t180 180t-180 180zM520 96q-62 -96 -220 -96q-260 0 -260 260q0 223 180 260l22 -79q-122 -26 -122 -181q0 -180 180 -180t180 180q0 155 -122 181l22 79q97 -20 142 -94q62 94 218 94q260 0 260 -260t-260 -260q-158 0 -220 96z" />
    <glyph glyph-name="uAA65" unicode="&#xaa65;" horiz-adv-x="1040" 
d="M300 0q-260 0 -260 260t260 260q97 0 158 -36l-49 -69q-42 25 -109 25q-180 0 -180 -180t180 -180t180 180q0 260 260 260t260 -260t-260 -260q-97 0 -158 36l49 69q42 -25 109 -25q180 0 180 180t-180 180t-180 -180v-630h-166v80h86v342q-64 -52 -180 -52z" />
    <glyph glyph-name="uAA66" unicode="&#xaa66;" horiz-adv-x="1040" 
d="M300 310q50 0 50 -50t-50 -50t-50 50t50 50zM300 440q-180 0 -180 -180t180 -180t180 180t-180 180zM560 260q0 -260 -260 -260t-260 260t260 260q158 0 220 -96q62 96 220 96q260 0 260 -260t-260 -260q-97 0 -158 36l49 69q42 -25 109 -25q180 0 180 180t-180 180
t-180 -180z" />
    <glyph glyph-name="uAA67" unicode="&#xaa67;" horiz-adv-x="1040" 
d="M300 310q50 0 50 -50t-50 -50t-50 50t50 50zM740 440q-180 0 -180 -180t180 -180t180 180t-180 180zM300 440q-180 0 -180 -180t180 -180t180 180t-180 180zM520 424q62 96 220 96q260 0 260 -260t-260 -260q-158 0 -220 96q-62 -96 -220 -96q-260 0 -260 260t260 260
q158 0 220 -96z" />
    <glyph glyph-name="uAA68" unicode="&#xaa68;" horiz-adv-x="1040" 
d="M300 310q50 0 50 -50t-50 -50t-50 50t50 50zM300 440q-180 0 -180 -180t180 -180t180 180t-180 180zM740 80q137 0 170 104q-20 6 -36 6q-61 0 -108 -24q-23 -12 -41 -30q-14 -15 -20 -54q16 -2 35 -2zM740 0q-52 0 -73 20t-21 43q0 55 21 85q21 31 52 51q62 41 155 41
q20 0 45 -6q1 12 1 26q0 180 -180 180t-180 -180q0 -260 -260 -260t-260 260t260 260q158 0 220 -96q62 96 220 96q260 0 260 -260t-260 -260z" />
    <glyph glyph-name="uAA69" unicode="&#xaa69;" horiz-adv-x="1040" 
d="M300 310q50 0 50 -50t-50 -50t-50 50t50 50zM760 81q160 9 160 179q0 180 -180 180q-174 0 -180 -168q168 -15 200 -191zM300 440q-180 0 -180 -180t180 -180t180 180t-180 180zM562 222q16 -127 146 -140q-30 125 -146 140zM520 424q62 96 220 96q260 0 260 -260
t-260 -260q-158 0 -220 96q-62 -96 -220 -96q-260 0 -260 260t260 260q158 0 220 -96z" />
    <glyph glyph-name="uAA6A" unicode="&#xaa6a;" horiz-adv-x="1040" 
d="M760 81q160 9 160 179q0 180 -180 180q-174 0 -180 -168q168 -15 200 -191zM300 440q-180 0 -180 -180t180 -180t180 180t-180 180zM562 222q16 -127 146 -140q-30 125 -146 140zM520 424q62 96 220 96q260 0 260 -260t-260 -260q-158 0 -220 96q-62 -96 -220 -96
q-260 0 -260 260t260 260q158 0 220 -96z" />
    <glyph glyph-name="uAA6B" unicode="&#xaa6b;" 
d="M230 82v20q-4 127 -102 224q-8 -29 -8 -66q0 -147 110 -178zM56 374q-64 56 -64 146h50q0 -58 37 -97q62 97 221 97q260 0 260 -260q0 -223 -180 -260l-22 79q122 26 122 181q0 180 -180 180q-109 0 -152 -66q132 -129 132 -287q0 -48 -12.5 -67.5t-47.5 -19.5
q-180 37 -180 260q0 65 16 114z" />
    <glyph glyph-name="uAA6C" unicode="&#xaa6c;" horiz-adv-x="1020" 
d="M510 470q-61 0 -64 -31q44 -65 44 -179q0 -260 -225 -260t-225 260t225 260v-80q-145 0 -145 -180t145 -180t145 180q0 106 -50 149q7 111 150 111t150 -111q-50 -43 -50 -149q0 -180 145 -180t145 180t-145 180v80q225 0 225 -260t-225 -260t-225 260q0 114 44 179
q-3 31 -64 31z" />
    <glyph glyph-name="uAA6D" unicode="&#xaa6d;" horiz-adv-x="630" 
d="M150 -187q0 -183 -135 -183t-135 183h80q0 -103 55 -103t55 103v447q0 21 2 40q-102 4 -102 110q0 110 110 110q64 0 91 -37q61 37 159 37q260 0 260 -260t-260 -260q-63 0 -111 15l42 75q29 -10 69 -10q180 0 180 180t-180 180t-180 -180v-447zM120 410q0 40 -40 40
t-40 -40t40 -40t40 40z" />
    <glyph glyph-name="uAA6E" unicode="&#xaa6e;" horiz-adv-x="1040" 
d="M335 82q-6 39 -20 54q-18 18 -41 30q-47 24 -108 24q-16 0 -36 -6q33 -104 170 -104q19 0 35 2zM480 260q0 180 -180 180t-180 -180q0 -14 1 -26q25 6 45 6q93 0 155 -41q31 -20 52 -51q21 -30 21 -85q0 -23 -21 -43t-73 -20q-260 0 -260 260t260 260t260 -260
q0 -180 180 -180t180 180t-180 180q-67 0 -109 -25l-49 69q61 36 158 36q260 0 260 -260t-260 -260t-260 260z" />
    <glyph glyph-name="uAA6F" unicode="&#xaa6f;" horiz-adv-x="760" 
d="M460 440q-180 0 -180 -180t180 -180t180 180t-180 180zM203 314l-83 80v-394h-80v520h57l124 -133q53 133 239 133q260 0 260 -260t-260 -260t-260 260q0 29 3 54z" />
    <glyph glyph-name="uAA70" unicode="&#xaa70;" horiz-adv-x="0" 
d="M-299 580q-76 0 -107 -31l-40 45q44 46 147 46q102 0 146 -46l-40 -45q-31 31 -106 31zM-299 690q-76 0 -107 -31l-40 45q44 46 147 46q102 0 146 -46l-40 -45q-31 31 -106 31z" />
    <glyph glyph-name="uAA71" unicode="&#xaa71;" horiz-adv-x="1040" 
d="M230 82v20q-4 127 -102 224q-8 -29 -8 -66q0 -147 110 -178zM300 520q158 0 220 -96q62 96 220 96q260 0 260 -260t-260 -260q-97 0 -158 36l49 69q42 -25 109 -25q180 0 180 180t-180 180t-180 -180q0 -223 -180 -260l-22 79q122 26 122 181q0 180 -180 180
q-109 0 -152 -66q132 -129 132 -287q0 -48 -12.5 -67.5t-47.5 -19.5q-180 37 -180 260q0 260 260 260z" />
    <glyph glyph-name="uAA72" unicode="&#xaa72;" horiz-adv-x="1020" 
d="M130 100q0 35 -35 35t-35 -35t35 -35t35 35zM740 440q-180 0 -180 -180t180 -180t180 180t-180 180zM300 440q-180 0 -180 -180q0 -58 59 -96q3 -5 6 -11q1 -2 2 -3q8 -21 8 -50q0 -100 -100 -100t-100 100q0 83 69 97q-24 29 -24 63q0 260 260 260q158 0 220 -96
q62 96 220 96q260 0 260 -260t-260 -260q-156 0 -218 94q-45 -74 -142 -94l-22 79q122 26 122 181q0 180 -180 180z" />
    <glyph glyph-name="uAA73" unicode="&#xaa73;" horiz-adv-x="674" 
d="M120 364v-364h-80v520h78q197 -440 319 -440q117 0 117 180t-180 180q-59 0 -102 -17l-19 78q51 19 121 19q260 0 260 -260t-197 -260q-176 0 -317 364z" />
    <glyph glyph-name="uAA74" unicode="&#xaa74;" horiz-adv-x="760" 
d="M320 -270q0 50 -50 50t-50 -50t50 -50t50 50zM370 89q110 30 110 171q0 147 -110 178v-349zM370 5v-236q68 -59 169 -59t101 78v592q0 160 -160 160q-175 0 -175 175t175 175t175 -175h-80q0 95 -95 95t-95 -95t95 -95q240 0 240 -240v-592q0 -158 -181 -158
q-104 0 -172 66q-16 -66 -97 -66q-100 0 -100 100t100 100q29 0 50 -9v179h-20q-260 0 -260 260q0 223 180 260l22 -79q-122 -26 -122 -181q0 -180 180 -180q10 0 20 1v352q0 48 12.5 67.5t47.5 19.5q180 -37 180 -260q0 -222 -190 -255z" />
    <glyph glyph-name="uAA75" unicode="&#xaa75;" horiz-adv-x="1200" 
d="M765 -270q0 35 -35 35t-35 -35t35 -35t35 35zM830 10v-211q68 -89 149 -89q101 0 101 78v592q0 160 -180 160q-175 0 -175 175t175 175t175 -175h-80q0 95 -95 95t-95 -95t95 -95q260 0 260 -240v-592q0 -158 -181 -158q-84 0 -152 66q-16 -66 -97 -66q-100 0 -100 100
t120 100v170h-10q-97 0 -158 36l49 69q42 -25 109 -25q180 0 180 180t-180 180t-180 -180q0 -223 -180 -260l-22 79q122 26 122 181q0 180 -180 180t-180 -180q0 -49 64 -76t64 -91q0 -93 -100 -93h-108v80h108q20 0 20 15q0 16 -19 24q-57 23 -83 63t-26 78q0 260 260 260
q158 0 220 -96q62 96 220 96q260 0 260 -260q0 -210 -170 -250z" />
    <glyph glyph-name="uAA76" unicode="&#xaa76;" horiz-adv-x="790" 
d="M375 -270q0 35 -35 35t-35 -35t35 -35t35 35zM440 15v-216q68 -89 149 -89t81 78v592q0 160 -160 160q-175 0 -175 175t175 175t175 -175h-80q0 95 -95 95t-95 -95t95 -95q240 0 240 -240v-592q0 -158 -161 -158q-84 0 -152 66q-16 -66 -97 -66q-100 0 -100 100t120 100
v171q-15 -1 -30 -1q-97 0 -158 36l49 69q42 -25 109 -25q180 0 180 180t-180 180q-170 0 -170 -180v-432q0 -198 -168 -198h-63q-169 0 -169 159t189 159v-80q-109 0 -109 -79t89 -79h63q88 0 88 118v519q0 93 -75 93q-65 0 -65 -93h-80q0 173 145 173q100 0 137 -58
q65 58 188 58q260 0 260 -260q0 -197 -150 -245z" />
    <glyph glyph-name="uAA77" unicode="&#xaa77;" 
d="M300 810q-95 0 -95 -95t95 -95v-80q-175 0 -175 175t175 175t175 -175h-80q0 95 -95 95zM300 520q260 0 260 -260q0 -137 -134 -240l141 -288l98 46l31 -72l-170 -76l-153 341q-9 -5 -19 -10v-251h86v-80h-166v397q206 74 206 233q0 180 -180 180t-180 -180q0 -49 64 -76
t64 -91q0 -93 -100 -93h-108v80h108q20 0 20 15q0 16 -19 24q-57 23 -83 63t-26 78q0 260 260 260z" />
    <glyph glyph-name="uAA78" unicode="&#xaa78;" horiz-adv-x="820" 
d="M40 408l70 35q70 -65 70 -200q0 -131 -66 -196l-68 37q54 52 54 159q0 112 -60 165zM557 63q36 -26 42 -32l-65 -51q-72 60 -184 60q-107 0 -159 -64l-37 68q65 66 196 66q86 0 144 -29l113 348q30 91 147 91q19 0 49.5 -16.5t46.5 -53.5l-57 -46q-7 23 -34 31
q-11 4 -20 4q-56 0 -74 -56zM514 520l35 -70q-65 -70 -199 -70q-131 0 -196 66l37 68q52 -54 159 -54q112 0 164 60z" />
    <glyph glyph-name="uAA79" unicode="&#xaa79;" 
d="M300 520q260 0 260 -260q0 -197 -206 -299v-251h86v-80h-166v377q206 104 206 253q0 180 -180 180t-180 -180q0 -49 64 -76t64 -91q0 -93 -100 -93h-108v80h108q20 0 20 15q0 16 -19 24q-57 23 -83 63t-26 78q0 260 260 260z" />
    <glyph glyph-name="uAA7A" unicode="&#xaa7a;" horiz-adv-x="1200" 
d="M259 -370q-219 0 -219 208v736q0 208 219 208h263q138 0 138 108h80q0 -188 -218 -188h-263q-139 0 -139 -128v-736q0 -128 139 -128h243q138 0 138 128v422q0 180 -180 180t-180 -180t180 -180q67 0 109 25l49 -69q-61 -36 -158 -36q-260 0 -260 260t260 260t260 -260
q0 -180 180 -180t180 180t-180 180q-67 0 -109 -25l-49 69q61 36 158 36q260 0 260 -260t-260 -260q-116 0 -180 52v-214q0 -208 -218 -208h-243z" />
    <glyph glyph-name="uAA7B" unicode="&#xaa7b;" horiz-adv-x="280" 
d="M140 65q35 0 35 35t-35 35t-35 -35t35 -35zM40 100q0 100 100 100t100 -100q0 -92 -104 -99q23 -61 91 -92l-36 -58q-151 42 -151 217v32z" />
    <glyph glyph-name="u1039_1000" horiz-adv-x="0" 
d="M-330 -195q0 95 -95 95t-95 -95q0 -83 73 -93l-28 -78q-125 23 -125 171q0 175 175 175q81 0 125 -38q44 38 125 38q175 0 175 -175t-175 -175q-17 0 -32 2l18 79q7 -1 14 -1q95 0 95 95t-95 95q-75 0 -75 -95q0 -148 -125 -171l-28 78q73 10 73 93z" />
    <glyph glyph-name="u1039_1001" horiz-adv-x="0" 
d="M-470 -261q0 23 61.5 49.5t105.5 26.5t95 -13v3q0 95 -95 95q-77 0 -91 -63l-77 30q28 113 168 113q175 0 175 -175t-175 -175q-138 0 -167 109zM-303 -235q-51 0 -85 -17q17 -48 85 -48t85 48q-44 17 -85 17z" />
    <glyph glyph-name="u1039_1002" horiz-adv-x="1" 
d="M-300 -20q175 0 175 -175q0 -148 -125 -171l-28 78q73 10 73 93q0 95 -95 95t-95 -95q0 -83 73 -93l-28 -78q-125 23 -125 171q0 175 175 175z" />
    <glyph glyph-name="u1039_1003" horiz-adv-x="0" 
d="M-330 -195q0 83 -73 93l28 78q125 -23 125 -171q0 -95 75 -95q95 0 95 95t-95 95q-7 0 -14 -1l-18 79q15 2 32 2q175 0 175 -175t-175 -175q-81 0 -125 38q-44 -38 -125 -38q-175 0 -175 174v1q0 28 20 43t63 36v28h-83v67h83q76 0 76 -63q0 -43 -39.5 -71t-39.5 -41
q0 -94 95 -94t95 95z" />
    <glyph glyph-name="u1039_1004" horiz-adv-x="1" 
d="M-473 -193q0 175 175 175q148 0 171 -125l-78 -28q-10 73 -93 73q-95 0 -95 -95t95 -95q83 0 93 73l78 -28q-23 -125 -171 -125q-175 0 -175 175z" />
    <glyph glyph-name="u1039_1005" horiz-adv-x="1" 
d="M-303 -290h3q95 0 95 95t-95 95h-3q13 -51 13 -95t-13 -95zM-357 -110q-48 -17 -48 -85t48 -85q17 44 17 85t-17 85zM-125 -195q0 -175 -175 -175t-175 175t175 175t175 -175z" />
    <glyph glyph-name="u1039_1006" horiz-adv-x="0" 
d="M-428 -235q-41 0 -85 -17q17 -48 85 -48q48 0 65 48q-24 17 -65 17zM-178 -100q-95 0 -95 -95t95 -95t95 95t-95 95zM-303 -332q-44 -38 -125 -38q-138 0 -167 109q0 23 92 63q31 13 75 13t75 -13v3q0 95 -75 95q-77 0 -91 -63l-77 30q28 113 168 113q81 0 125 -38
q44 38 125 38q175 0 175 -175t-175 -175q-81 0 -125 38z" />
    <glyph glyph-name="u1039_1007" horiz-adv-x="1" 
d="M-129 -132q26 -20 72 -26l-6 -50q-63 8 -100 36q-17 -19 -54 -19q-70 0 -70 90v3h-11q-95 0 -95 -95t95 -95q83 0 93 73l78 -28q-23 -125 -171 -125q-175 0 -175 175t175 175q142 0 169 -114zM-192 -116q0 25 -25 25t-25 -25t25 -25t25 25z" />
    <glyph glyph-name="u1039_1008" horiz-adv-x="160" 
d="M-272 -290h3q95 0 95 95t-95 95h-3q13 -51 13 -95t-13 -95zM-326 -110q-38 -17 -38 -85t38 -85q17 44 17 85t-17 85zM-94 -199l134 -76v795h80v-890h-60l-173 99q-38 -99 -156 -99q-175 0 -175 175t175 175q172 0 175 -179z" />
    <glyph glyph-name="u1039_100B" horiz-adv-x="0" 
d="M-175 -327q-44 -23 -125 -23q-137 1 -175 47l20 45q52 -41 155 -42q107 0 156 43h19v-63h80v-50h-130v43zM-473 -149q0 131 175 131q148 0 171 -94l-78 -21q-10 40 -93 40q-95 0 -95 -56t95 -56q83 0 93 40l78 -21q-23 -94 -171 -94q-175 0 -175 131z" />
    <glyph glyph-name="u1039_100C" horiz-adv-x="0" 
d="M-494 -368q-108 0 -108 142v73q0 133 109 133t109 -133v-83h-50v83q0 53 -34 53q-54 0 -54 -53v-73q0 -62 78 -62h127q-30 52 -30 93q0 175 175 175t175 -175q0 -148 -125 -175l-28 82q73 10 73 93q0 95 -95 95t-95 -95q0 -83 73 -93l-28 -82z" />
    <glyph glyph-name="u1039_100F" horiz-adv-x="0" 
d="M-258 -76q-12 6 -42 6t-42 -6q29 -43 29 -119q0 -70 -24 -113q13 -12 37 -12t37 12q-24 43 -24 113q0 76 29 119zM-545 -195q0 -95 95 -95v-80q-175 0 -175 175t156 175q54 0 89 -21q24 21 80 21t80 -21q35 21 89 21q156 0 156 -175t-175 -175v80q95 0 95 95t-76 95
t-76 -95q0 -75 24 -107q-21 -68 -117 -68t-107 68q14 32 14 107q0 95 -76 95t-76 -95z" />
    <glyph glyph-name="u1039_1010" horiz-adv-x="0" 
d="M-425 -100q-95 0 -95 -95t95 -95t95 95t-95 95zM-290 -78q44 58 115 58q175 0 175 -175t-175 -175q-17 0 -32 2l18 79q7 -1 14 -1q95 0 95 95t-95 95q-75 0 -75 -95q0 -175 -175 -175t-175 175t175 175q81 0 135 -58z" />
    <glyph glyph-name="u1039_1011" horiz-adv-x="0" 
d="M-425 -100q-95 0 -95 -95t95 -95t95 95t-95 95zM-175 -100q-95 0 -95 -95t95 -95t95 95t-95 95zM-300 -332q-44 -38 -125 -38q-175 0 -175 175t175 175q81 0 125 -38q44 38 125 38q175 0 175 -175t-175 -175q-81 0 -125 38z" />
    <glyph glyph-name="u1039_1012" horiz-adv-x="0" 
d="M-169 -195q44 -25 44 -55q0 -120 -175 -120t-175 120h80q0 -50 95 -50t95 50q0 30 -95 30v50q95 0 95 30q0 50 -95 50t-95 -50h-80q0 120 175 120t175 -120q0 -30 -44 -55z" />
    <glyph glyph-name="u1039_1013" horiz-adv-x="1" 
d="M-205 -198v3q0 95 -95 95t-95 -95v-3q51 13 95 13t95 -13zM-385 -252q17 -38 85 -38t85 38q-44 17 -85 17t-85 -17zM-300 -20q175 0 175 -175t-175 -175t-175 175t175 175z" />
    <glyph glyph-name="u1039_1014" horiz-adv-x="0" 
d="M-333 -310v30q0 29 -38 29q-44 0 -44 -18q0 -37 82 -41zM-283 -310q98 4 98 48q0 32 -111.5 65.5t-111.5 89.5q0 87 101 87q115 0 115 -94h-60q0 34 -55 34q-31 0 -31 -27q0 -20 106.5 -53.5t106.5 -101.5q0 -108 -175 -108t-175 101q0 67 74 67q118 0 118 -78v-30z" />
    <glyph glyph-name="u1039_1015" horiz-adv-x="1" 
d="M-475 -191q0 148 125 171l28 -78q-73 -10 -73 -93q0 -95 95 -95t95 95q0 83 -73 93l28 78q125 -23 125 -171q0 -175 -175 -175t-175 175z" />
    <glyph glyph-name="u1039_1016" horiz-adv-x="1" 
d="M-125 -195q0 -175 -175 -175t-175 175q0 140 113 168l30 -77q-63 -14 -63 -91q0 -95 95 -95h3q-13 51 -13 95t13 75q40 92 63 92q109 -29 109 -167zM-243 -280q38 17 38 85t-38 85q-17 -44 -17 -85t17 -85z" />
    <glyph glyph-name="u1039_1017" horiz-adv-x="1" 
d="M-370 -109q-25 -19 -25 -82q0 -95 95 -95t95 95q0 63 -25 81q-41 -28 -70 -28t-70 29zM-333 -79q12 -9 33 -9t33 9l17 59q125 -23 125 -171q0 -175 -175 -175t-175 175q0 148 125 171z" />
    <glyph glyph-name="u1039_1018" horiz-adv-x="0" 
d="M-332 -193q0 95 -95 95q-83 0 -93 -73l-78 28q23 125 171 125q82 0 136 -49q33 47 114 47q175 0 175 -175t-175 -175q-17 0 -32 2l18 79q7 -1 14 -1q95 0 95 95t-95 95q-75 0 -75 -93q0 -175 -175 -175q-148 0 -171 125l78 28q10 -73 93 -73q95 0 95 95z" />
    <glyph glyph-name="u1039_1019" horiz-adv-x="1" 
d="M-205 -203v12q0 83 -73 93l28 78q125 -23 125 -171q0 -175 -175 -175t-175 175q0 148 125 171l28 -78q-73 -10 -73 -93v-12q49 16 95 16t95 -16zM-379 -259q19 -37 79 -37t79 37q-37 22 -79 22t-79 -22z" />
    <glyph glyph-name="u1039_101C" horiz-adv-x="0" 
d="M-340 -195q0 95 -85 95q-95 0 -95 -95t95 -95q7 0 14 1l18 -79q-15 -2 -32 -2q-175 0 -175 175t175 175q165 0 165 -175q0 -95 85 -95q95 0 95 95t-95 95q-7 0 -14 -1l-18 79q15 2 32 2q175 0 175 -175t-175 -175q-165 0 -165 175z" />
    <glyph glyph-name="u1039_101D" horiz-adv-x="1" 
d="M-300 -100q-95 0 -95 -95t95 -95t95 95t-95 95zM-300 -20q175 0 175 -175t-175 -175t-175 175t175 175z" />
    <glyph glyph-name="u1039_101D_103E" horiz-adv-x="1" 
d="M-300 -100q-95 0 -95 -95t95 -95t95 95t-95 95zM-464 -273l-85 -97l-102 90l37 48l61 -47l78 96q6 163 175 163q175 0 175 -175t-175 -175q-130 0 -164 97z" />
    <glyph glyph-name="u103C_big" horiz-adv-x="160" 
d="M942 -290q138 0 138 128v262h80v-262q0 -208 -218 -208h-683q-219 0 -219 208v844q0 208 219 208h683q218 0 218 -208v-82h-80v82q0 128 -138 128h-683q-139 0 -139 -128v-844q0 -128 139 -128h683z" />
    <glyph glyph-name="u102F_long" horiz-adv-x="160" 
d="M40 520h80v-810h96v-80h-176v890z" />
    <glyph glyph-name="u1030_long" horiz-adv-x="300" 
d="M40 520h80v-890h-80v890zM180 520h80v-810h96v-80h-176v890z" />
    <glyph glyph-name="u103C_1" horiz-adv-x="160" 
d="M120 -162q0 -128 139 -128v-80q-219 0 -219 208v844q0 208 219 208h263q218 0 218 -208v-82h-80v82q0 128 -138 128h-263q-139 0 -139 -128v-844z" />
    <glyph glyph-name="u103C_2" horiz-adv-x="160" 
d="M259 -370q-219 0 -219 208v844q0 208 219 208v-80q-139 0 -139 -128v-844q0 -128 139 -128h263q138 0 138 128v262h80v-262q0 -208 -218 -208h-263z" />
    <glyph glyph-name="u103C_3" horiz-adv-x="180" 
d="M259 -370q-219 0 -219 208v844q0 208 219 208v-80q-139 0 -139 -128v-844q0 -128 139 -128v-80z" />
    <glyph glyph-name="u103C_big_1" horiz-adv-x="160" 
d="M801 -370h-542q-219 0 -219 208v844q0 208 219 208h683q218 0 218 -208v-82h-80v82q0 128 -138 128h-683q-139 0 -139 -128v-844q0 -128 139 -128h542v-80z" />
    <glyph glyph-name="u103C_big_2" horiz-adv-x="160" 
d="M942 -290q138 0 138 128v262h80v-262q0 -208 -218 -208h-683q-219 0 -219 208v844q0 208 219 208h342v-80h-342q-139 0 -139 -128v-844q0 -128 139 -128h683z" />
    <glyph glyph-name="u103C_big_3" horiz-adv-x="180" 
d="M601 -370h-342q-219 0 -219 208v844q0 208 219 208h342v-80h-342q-139 0 -139 -128v-844q0 -128 139 -128h342v-80z" />
    <glyph glyph-name="u100B_1039_100B" 
d="M340 -338q-44 -17 -125 -17q-137 1 -175 35l20 34q52 -31 155 -31q107 0 156 32h19v-47h50v-38h-100v32zM42 -204q0 98 175 98q148 0 171 -70l-78 -16q-10 30 -93 30q-95 0 -95 -42t95 -42q83 0 93 29l78 -15q-23 -70 -171 -70q-175 0 -175 98zM560 -290h80v-80h-160v297
q-91 -17 -180 -17q-157 0 -260 53v128l37 18q77 -69 223 -69q94 0 180 39v37q-82 -39 -180 -39q-260 0 -260 222q0 221 260 221q222 0 260 -150l-77 -27q-24 97 -183 97q-180 0 -180 -141q0 -142 180 -142q159 0 183 97l77 -27v-156q-90 -81 -260 -81q-91 0 -180 34v-35
q90 -29 180 -29q162 0 260 64v-314z" />
    <glyph glyph-name="u100A_alt" horiz-adv-x="1040" 
d="M480 260q0 180 -180 180q-155 0 -181 -122l-79 22q37 180 260 180q260 0 260 -260q0 -180 180 -180t180 180t-180 180q-67 0 -109 -25l-49 69q61 36 158 36q260 0 260 -260t-260 -260q-158 0 -220 96q-62 -96 -220 -96q-115 0 -180 47v-219q0 -118 139 -118h262v-80h-262
q-219 0 -219 198v197v155l79 22q26 -122 181 -122q180 0 180 180z" />
    <glyph glyph-name="u1014_alt" 
d="M269 82q-8 98 -99 98q-30 0 -30 -30q0 -61 129 -68zM300 0q-260 0 -260 150q0 90 120 90q53 0 122 -40q58 -34 67 -118q131 8 131 78q0 41 -59 57l-95 28q-186 52 -186 145q0 130 150 130q170 0 170 -140h-80q0 60 -90 60q-70 0 -70 -50q0 -28 69 -46l105 -28
q166 -39 166 -156q0 -160 -260 -160z" />
    <glyph glyph-name="u101B_alt" 
d="M373 20q-21 -20 -73 -20q-260 0 -260 260t260 260t260 -260v-510h-80v510q0 180 -180 180t-180 -180q0 -14 1 -26q25 6 45 6q93 0 155 -41q31 -20 52 -51q21 -30 21 -85q0 -23 -21 -43zM335 82q-6 39 -20 54q-18 18 -41 30q-47 24 -108 24q-16 0 -36 -6q33 -104 170 -104
q19 0 35 2z" />
    <glyph glyph-name="u1025_alt" 
d="M120 47v-219q0 -118 139 -118v-80q-219 0 -219 198v352l79 22q26 -122 181 -122q180 0 180 180t-180 180q-155 0 -181 -122l-79 22q37 180 260 180q260 0 260 -260t-260 -260q-115 0 -180 47z" />
    <glyph glyph-name="u1037_alt" horiz-adv-x="0" 
d="M-80 -20q100 0 100 -100t-100 -100t-100 100t100 100zM-45 -120q0 35 -35 35t-35 -35t35 -35t35 35z" />
    <glyph glyph-name="u103B_alt" horiz-adv-x="160" 
d="M40 -370l-235 152l70 49l165 -106v795h80v-890h-80z" />
    <glyph glyph-name="u103E_alt" horiz-adv-x="0" 
d="M-158 -51l71 -41l-247 -248l-132 132l71 41l61 -61z" />
    <glyph glyph-name="u1037_alt2" horiz-adv-x="0" 
d="M50 -20q100 0 100 -100t-100 -100t-100 100t100 100zM85 -120q0 35 -35 35t-35 -35t35 -35t35 35z" />
    <glyph glyph-name="u100B_1039_100C" 
d="M480 -86q-89 -24 -180 -24q-170 0 -260 81l40 38q86 -69 220 -69q146 0 223 69l37 -18v-193q0 -168 -188 -168h-193q-139 0 -139 129q0 89 139 89h153v-50h-153q-59 0 -59 -39q0 -49 59 -49h193q108 0 108 88v116zM300 520q223 0 260 -180l-79 -22q-26 122 -181 122
q-180 0 -180 -180t180 -180q155 0 181 122l79 -22q-37 -180 -260 -180q-260 0 -260 260t260 260z" />
    <glyph glyph-name="u25CC" unicode="&#x25cc;" horiz-adv-x="595" 
d="M479 418q0 -24 -24 -24q-25 0 -25 24q0 25 25 25q24 0 24 -25zM406 466q0 -24 -23 -24q-25 0 -25 24q0 25 25 25q23 0 23 -25zM527 346q0 -25 -25 -25q-24 0 -24 25q0 24 25 24q24 0 24 -24zM545 261q0 -24 -24 -24q-25 0 -25 24t25 24q24 0 24 -24zM321 484
q0 -25 -24 -25t-24 25q0 24 24 24t24 -24zM237 466q0 -24 -25 -24q-24 0 -24 24q0 25 24 25q25 0 25 -25zM527 176q0 -24 -25 -24q-24 0 -24 24q0 25 24 25q25 0 25 -25zM165 418q0 -24 -25 -24q-24 0 -24 23q0 26 24 26q25 0 25 -25zM479 103q0 -24 -24 -24q-25 0 -25 24
q0 25 25 25q24 0 24 -25zM406 55q0 -23 -23 -23q-25 0 -25 23q0 25 25 25q23 0 23 -25zM116 346q0 -25 -23 -25q-25 0 -25 25q0 24 24 24t24 -24zM99 261q0 -24 -24 -24q-25 0 -25 24t25 24q24 0 24 -24zM321 39q0 -25 -24 -25t-24 25q0 24 24 24t24 -24zM116 176
q0 -24 -24 -24t-24 24q0 25 24 25t24 -25zM237 57q0 -25 -25 -25q-24 0 -24 23q0 25 24 25q25 0 25 -23zM165 103q0 -24 -25 -24q-24 0 -24 24q0 25 24 25q25 0 25 -25z" />
    <glyph glyph-name="u103E_short" horiz-adv-x="0" 
d="M-340 -20h80v-230h-176v80h96v150z" />
  </font>
</defs>
</svg>
